[ Сегодня на трекере фрилич! Идет свободное скачивание без начисления Download ]

Самсара / Samsara (Рон Фрике / Ron Fricke) [2011 г., документальный, BDRip, 1080p] Original (Eng)

 

Создавать темы 25-Фев-2014 02:49

-Самсара / Samsara
«Целый мир твоими глазами»
-- Производство: США, Индонезия, Сингапур, Таиланд, Кения, Дания, Бразилия, Иордания, ОАЭ, Саудовская Аравия, ЮАР, Италия, Гана, Египет, Китай, Япония
Жанр: документальный
Год выпуска: 2011 г.
Продолжительность: 01:42:05
Мировая премьера: 11 сентября 2011
Российская премьера: 4 апреля 2013, «Премьер Зал»
Дата выхода Blu-Ray: 4 ноября 2013, «Новый Диск»
Перевод: Не требуется (музыкальное сопровождение)
Оригинальный аудиопоток: английский
Режиссер: Рон Фрике / Ron Fricke-В ролях: Ни Маде Мегахади Пративи, Пути Сри Кандра Деви, Путу Динда Пратика, Маркос Луна, Хироси Исигуро, Оливье Де Сагазан, Кикумару, Крисанто Нире, Роберт Хенлайн, Balinese Tari Legong Dancers...-Описание: Фильм, снятый полностью на 70-миллиметровую пленку, представляет собой полуторачасовое путешествие по самым удивительным местам планеты (всего в фильме покажут 25 стран на 5 континентах). Действие «Самсары» переносит зрителя на священные земли и в зоны стихийных бедствий, в сердце промышленных объектов и природных чудес.
Санса́ра или самса́ра (санскр. संसार, saṃsāra IAST «переход, череда перерождений, жизнь») — круговорот рождения и смерти в мирах, ограниченных кармой, одно из основных понятий в индийской философии: душа, тонущая в «океане сансары», стремится к освобождению (мокше) и избавлению от результатов своих прошлых действий (кармы), которые являются частью «сети сансары».
Сансара — одно из центральных понятий в индийских религиях — индуизме, буддизме, джайнизме и сикхизме. Каждая из этих религиозных традиций даёт свои интерпретации понятия сансары. В большинстве традиций и философских школ, сансара рассматривается как неблагоприятное положение, из которого необходимо выйти. Например, в философской школе адвайта-веданты индуизма, а также в некоторых направлениях буддизма, сансара рассматривается как результат невежества о своём истинном «Я», невежества, под влиянием которого индивид, или душа, принимает временный и иллюзорный мир за реальность. При этом в буддизме не признаётся существование вечной души и через цикл сансары проходит временная сущность индивида.
-Качество видео: BDRip
Контейнер: MKV
Стандарт разрешения: 1080p
Видео кодек: H.264/AVC
Аудио кодек: DTS
Видео: 1920x804 at 23.976 fps, ~14310 kbps avg
Аудио: English: 48 kHz, DTS, 3/2 (L,C,R,l,r) + LFE ch, ~1536.00 kbps avg
Cубтитры: отсутствуют

Media Info

General
Complete name                    : X:\Uploads\Pirat.Ca\Samsara.2011.1080p.BDRip.Eng.mkv
Format                           : Matroska
File size                        : 11.3 GiB
Duration                         : 1h 42mn
Overall bit rate                 : 15.8 Mbps
Encoded date                     : UTC 2010-02-22 21:41:31
Writing application              : mkvmerge v5.9.0 ('On The Loose') built on Dec  9 2012 15:37:01
Writing library                  : libebml v1.3.0 + libmatroska v1.4.0
Video
ID                               : 1
Format                           : AVC
Format/Info                      : Advanced Video Codec
Format profile                   : [email protected]
Format settings, CABAC           : Yes
Format settings, ReFrames        : 5 frames
Muxing mode                      : Container [email protected]
Codec ID                         : V_MPEG4/ISO/AVC
Duration                         : 1h 42mn
Bit rate                         : 14.0 Mbps
Width                            : 1 920 pixels
Height                           : 804 pixels
Display aspect ratio             : 2.35:1
Frame rate                       : 23.976 fps
Color space                      : YUV
Chroma subsampling               : 4:2:0
Bit depth                        : 8 bits
Scan type                        : Progressive
Bits/(Pixel*Frame)               : 0.378
Stream size                      : 9.98 GiB (88%)
Title                            : Самсара / Samsara
Writing library                  : x264 core 129 r2230 1cffe9f
Encoding settings                : cabac=1 / ref=5 / deblock=1:-3:-3 / analyse=0x3:0x113 / me=umh / subme=11 / psy=1 / psy_rd=0.90:0.00 / mixed_ref=1 / me_range=32 / chroma_me=1 / trellis=2 / 8x8dct=1 / cqm=0 / deadzone=21,11 / fast_pskip=0 / chroma_qp_offset=-2 / threads=12 / lookahead_threads=2 / sliced_threads=0 / nr=0 / decimate=1 / interlaced=0 / bluray_compat=0 / constrained_intra=0 / bframes=8 / b_pyramid=2 / b_adapt=2 / b_bias=0 / direct=1 / weightb=1 / open_gop=0 / weightp=2 / keyint=240 / keyint_min=23 / scenecut=40 / intra_refresh=0 / rc=crf / mbtree=0 / crf=17.0 / qcomp=0.70 / qpmin=0 / qpmax=69 / qpstep=4 / ip_ratio=1.40 / pb_ratio=1.30 / aq=2:0.80
Language                         : English
Audio
ID                               : 2
Format                           : DTS
Format/Info                      : Digital Theater Systems
Codec ID                         : A_DTS
Duration                         : 1h 42mn
Bit rate mode                    : Constant
Bit rate                         : 1 510 Kbps
Channel(s)                       : 6 channels
Channel positions                : Front: L C R, Side: L R, LFE
Sampling rate                    : 48.0 KHz
Bit depth                        : 24 bits
Stream size                      : 1.08 GiB (10%)
Title                            : DTS 48/24 1536 Kbps 5/1
Language                         : English

Скриншоты

Яндекс.Метрика
Рейтинг@Mail.ru