[ Сегодня на трекере фрилич! Идет свободное скачивание без начисления Download ]

Голосуй за трекер

Поддержать трекер

Мы Вконтакте

Друзья проекта


Рекомендуем релиз

Windows 10 Pro 1709 x86x64 By Vladios13 v.22.10

Windows 8.1 Pro x64 By Vladios13 v.29.04 [Ru]

Windows 7 Ultimate SP1 x86 By Vladios13 v.29.04 [Ru]

Windows 7 Ultimate SP1 x64 By Vladios13 v.29.04 [Ru]

Windows 7 Starter SP1 x86 By Vladios13 v.21.07 [Ru]

Windows 7 Ultimate SP1 x64 By Vladios13 v.28.04 [Ru]

Windows 7 SP1 Home Premium x64 by vladios13 & dragon

Windows 7 SP1 Starter x86 [v16.04] by vladios13

Windows 7 Ultimate SP1 x64 By Vladios13 v.03.03

Microsoft Windows 10 - Оригинальные образы от Microsoft MSDN [Ru]

Windows 10 Enterprise LTSB x64 by vladios13 & liveonloan [13.12] [RU]

Windows 8.1 Enterprise x64 with Update (January) [v.09.01]by DDGroup™[Ru]


Твиты


Глобус


Windows Программы Игры Фильмы Музыка Изображение

Скачать Тебя никогда здесь не было / You Were Never Really Here (Линн Рэмси) [2017 г., триллер, драма, детектив, BDRip 1080p] | HDRezka Studio

Тебя никогда здесь не было / You Were Never Really Here- Год выпуска: 2017
Страна: Великобритания, Франция, США
Жанр: триллер, драма, детектив
Продолжительность: 01:29:29
Перевод: Любительский многоголосый | HDRezka Studio
Субтитры: Русские, английские-Режиссер: Линн Рэмси-В ролях: Хоакин Феникс, Екатерина Самсонова, Алекс Манетт, Джон Доумен, Джудит Анна Робертс, Алессандро Нивола, Данте Перейра-Олсон-О фильме: У сурового Джо непростая судьба. Он никого не боится, лишь вспышки воспоминаний заставляют его вздрагивать. Безжалостный герой-одиночка, идущий напролом ради спасения слабых. Для Нины, юной дочери сенатора, Джо — единственная надежда. И даже самые изощрённые и жестокие силы не должны помешать ему вызволить её из ада, в который она попала.- -Качество: BDRip 1080p
Формат: MKV
Видео кодек: x.264
Аудио кодек: AC3, DTS
Видео: AVC, 1920x804 (2.40:1), 24.000 fps, 8 000 Kbps (0.216 bit/pixel)
Аудио #1: AC-3, 48.0 KHz, 2 ch, 384 Kbps, CBR (Russian/HDrezka)
Аудио #2: AC-3, 48.0 KHz, 6 ch, 384 Kbps, CBR (Russian/HDrezka)
Аудио #3: DTS, 48.0 KHz, 6 ch, 1 509 Kbps, CBR (English)-Примечание : аудио дорожка №2 получена из английской дорожки 5.1 с заменой центрального канала-

MediaInfo

Общее
Уникальный идентификатор : 233152125786240895008357930998361046266 (0xAF67775007EF4D7F89D7B563C7E93CFA)
Полное имя : You.Were.Never.Really.Here.2017.BDRip.1080p.mkv
Формат : Matroska
Версия формата : Version 4 / Version 2
Размер файла : 6,42 Гбайт
Продолжительность : 1 ч. 29 м.
Общий поток : 10,3 Мбит/сек
Дата кодирования : UTC 2018-04-23 15:20:41
Программа кодирования : mkvmerge v8.3.0 ('Over the Horizon') 64bit
Библиотека кодирования : libebml v1.3.1 + libmatroska v1.4.2
Видео
Идентификатор : 1
Формат : AVC
Формат/Информация : Advanced Video Codec
Профиль формата : [email protected]
Параметр CABAC формата : Да
Параметр ReFrames формата : 4 кадра
Идентификатор кодека : V_MPEG4/ISO/AVC
Продолжительность : 1 ч. 29 м.
Битрейт : 8000 Кбит/сек
Ширина : 1920 пикселей
Высота : 804 пикселя
Соотношение сторон : 2,40:1
Режим частоты кадров : Постоянный
Частота кадров : 24,000 кадра/сек
Цветовое пространство : YUV
Субдискретизация насыщенности : 4:2:0
Битовая глубина : 8 бит
Тип развёртки : Прогрессивная
Бит/(Пиксели*Кадры) : 0.216
Размер потока : 4,99 Гбайт (78%)
Библиотека кодирования : x264 core 155 r2901 7d0ff22
Настройки программы : cabac=1 / ref=4 / deblock=1:-3:-3 / analyse=0x3:0x113 / me=umh / subme=8 / psy=1 / psy_rd=1.00:0.00 / mixed_ref=1 / me_range=16 / chroma_me=1 / trellis=2 / 8x8dct=1 / cqm=0 / deadzone=21,11 / fast_pskip=0 / chroma_qp_offset=-2 / threads=12 / lookahead_threads=3 / sliced_threads=0 / nr=0 / decimate=1 / interlaced=0 / bluray_compat=0 / constrained_intra=0 / bframes=4 / b_pyramid=2 / b_adapt=2 / b_bias=0 / direct=1 / weightb=1 / open_gop=0 / weightp=2 / keyint=250 / keyint_min=23 / scenecut=40 / intra_refresh=0 / rc_lookahead=40 / rc=2pass / mbtree=1 / bitrate=8000 / ratetol=1.0 / qcomp=0.60 / qpmin=0 / qpmax=69 / qpstep=4 / cplxblur=20.0 / qblur=0.5 / vbv_maxrate=50000 / vbv_bufsize=62500 / nal_hrd=none / filler=0 / ip_ratio=1.40 / aq=1:0.70
Язык : English
Default : Да
Forced : Нет
Цветовой диапазон : Limited
Основные цвета : BT.709
Характеристики трансфера : BT.709
Коэффициенты матрицы : BT.709
Аудио #1
Идентификатор : 2
Формат : AC-3
Формат/Информация : Audio Coding 3
Расширение режима : CM (complete main)
Параметр Endianness формата : Big
Идентификатор кодека : A_AC3
Продолжительность : 1 ч. 29 м.
Вид битрейта : Постоянный
Битрейт : 384 Кбит/сек
Каналы : 2 канала
Расположение каналов : Front: L R
Частота : 48,0 КГц
Частота кадров : 31,250 кадров/сек (1536 spf)
Битовая глубина : 16 бит
Метод сжатия : С потерями
Размер потока : 246 Мбайт (4%)
Заголовок : HDrezka Studio
Язык : Russian
Default : Да
Forced : Нет
Аудио #2
Идентификатор : 3
Формат : AC-3
Формат/Информация : Audio Coding 3
Расширение режима : CM (complete main)
Параметр Endianness формата : Big
Идентификатор кодека : A_AC3
Продолжительность : 1 ч. 29 м.
Вид битрейта : Постоянный
Битрейт : 384 Кбит/сек
Каналы : 6 каналов
Расположение каналов : Front: L C R, Side: L R, LFE
Частота : 48,0 КГц
Частота кадров : 31,250 кадров/сек (1536 spf)
Битовая глубина : 16 бит
Метод сжатия : С потерями
Размер потока : 246 Мбайт (4%)
Заголовок : HDrezka Studio
Язык : Russian
Default : Нет
Forced : Нет
Аудио #3
Идентификатор : 4
Формат : DTS
Формат/Информация : Digital Theater Systems
Режим : 16
Параметр Endianness формата : Big
Идентификатор кодека : A_DTS
Продолжительность : 1 ч. 29 м.
Вид битрейта : Постоянный
Битрейт : 1509 Кбит/сек
Каналы : 6 каналов
Расположение каналов : Front: L C R, Side: L R, LFE
Частота : 48,0 КГц
Частота кадров : 93,750 кадра/сек (512 spf)
Битовая глубина : 24 бит
Метод сжатия : С потерями
Размер потока : 966 Мбайт (15%)
Язык : English
Default : Нет
Forced : Нет
Текст #1
Идентификатор : 5
Формат : UTF-8
Идентификатор кодека : S_TEXT/UTF8
Идентификатор кодека/Информация : UTF-8 Plain Text
Продолжительность : 1 ч. 29 м.
Битрейт : 23 бит/сек
Count of elements : 363
Размер потока : 15,5 Кбайт (0%)
Язык : Russian
Default : Да
Forced : Нет
Текст #2
Идентификатор : 6
Формат : UTF-8
Идентификатор кодека : S_TEXT/UTF8
Идентификатор кодека/Информация : UTF-8 Plain Text
Продолжительность : 1 ч. 20 м.
Битрейт : 22 бит/сек
Count of elements : 502
Размер потока : 13,5 Кбайт (0%)
Язык : English
Default : Нет
Forced : Нет
Меню
00:00:00.000 : en:00:00:00.000
00:11:50.292 : en:00:11:50.292
00:22:44.375 : en:00:22:44.375
00:31:55.833 : en:00:31:55.833
00:42:47.375 : en:00:42:47.375
00:53:22.583 : en:00:53:22.583
01:01:47.250 : en:01:01:47.250
01:09:53.625 : en:01:09:53.625

Трейлер

-
- -
Комментарий: 0 | Скачать | Размер раздачи: 6.42 GB

Скачать Тебя никогда здесь не было / You Were Never Really Here (Линн Рэмси) [2017 г., триллер, драма, детектив, HDRip] | HDRezka Studio

Тебя никогда здесь не было / You Were Never Really Here- Год выпуска: 2017
Страна: Великобритания, Франция, США
Жанр: триллер, драма, детектив
Продолжительность: 01:29:29
Перевод: Любительский многоголосый | HDRezka Studio
Субтитры: Отсутствуют-Режиссер: Линн Рэмси-В ролях: Хоакин Феникс, Екатерина Самсонова, Алекс Манетт, Джон Доумен, Джудит Анна Робертс, Алессандро Нивола, Данте Перейра-Олсон-О фильме: У сурового Джо непростая судьба. Он никого не боится, лишь вспышки воспоминаний заставляют его вздрагивать. Безжалостный герой-одиночка, идущий напролом ради спасения слабых. Для Нины, юной дочери сенатора, Джо — единственная надежда. И даже самые изощрённые и жестокие силы не должны помешать ему вызволить её из ада, в который она попала.- -Качество: HDRip
Формат: AVI
Видео кодек: XviD
Аудио кодек: AC3
Видео: MPEG4, XviD, 720x304 (2.35:1), 24.000 fps, 1 860 Kbps (0.354 bit/pixel)
Аудио: AC-3, 48.0 KHz, 2 ch, 384 Kbps, CBR-

Трейлер

-
- -
Комментарий: 0 | Скачать | Размер раздачи: 1.41 GB

Скачать Windows 8.1 Pro {x64} (v.20.04.18) by Aspro [rus]

Windows 8.1 Pro {x64} (v.20.04.18) by Aspro-- Версия программы: 6.3 prog_build: 9600
Язык интерфейса: Русский
Платформа: x64 (64bit)
Разработчик:microsoft.com
Лекарство: Всё вылечено
Системные требования:
* Процессор: 1 гигагерц (ГГц) или больше.
* ОЗУ: 2 ГБ для 64-разрядной версии.
* Свободное место на жестком диске: 20 ГБ для 64-разрядной версии.
* Графический адаптер: DirectX версии 9 или более поздней с драйвером WDDM 1.0.
Описание:
Сборка сделана из оригинального образа
ru_windows_8.1_pro_vl_with_update_x64_dvd_6050899
-Удалены все модерн приложения вместе с магазином
-Интегрированы последние обновления по 20.04.18
-Выключен файл подкачки
-АвтоАктивация с переактивацией . (AAct v3.8.5) в C:\Windows\AAct_Tools
-Изменены иконки на Windows 10 оригинальные
-Добавлены обои
-Удалены стандартные темы и фоны
-Удалено большинство шрифтов (Азиатские, Арабские)
-Используется формат образа системы - ESD

Удалено

Windows Defender
OneDrive & Photo
Windows Search Engine
Windows Embedded Lockdown Manager
Windows Parental Controls
Hyper - V
Windows Store Client
Камера
Домашняя группа
Checkpoint, F5, Juniper, SonicWALL, VPN Plugins
Удалены из "Проводника" папки (видео, документы, загрузки, изображения, музыка)

Установлено

Microsoft .NET 3.5
Unlocker
Winrar

Контрольные суммы

CRC32: D6B2C344
MD5: D8E984006A99E1CDC4102B04250DC1C8
SHA-1: 749566A40F0F2865A965720539E0362C64BD5326
Скриншоты:
Комментарий: 0 | Скачать | Размер раздачи: 2.68 GB

Скачать Windows 10 PRO Redstone 4 (1803 build 17133.1) x64 + base soft

Windows 10 PRO Redstone 4 (1803 build 17133.1) x64 + base soft--- Язык интерфейса: Русский + Английский
Разработчик:Microsoft
Лекарство: Патч, кейген
Системные требования:
Процессор: Не менее 1 ГГц, рекомендуется от 2ГГц
ОЗУ: минимум 2 ГБ, рекомендуется от 4 ГБ.
Место на жестком диске: от 20 ГБ.
Видеоадаптер: DirectX версии 9 или более поздней
Описание: Серьезное обновление Windows 10 известно под кодовым названием Redstone 4, номер версии 1803, редакции PRO. В данной версии произошли следующие основные изменения - Временная шкала - список активностей на ваших устройствах, Видео в режиме HDR, Улучшения Microsoft Edge, Быстрое сопряжение Bluetooth устройств, Обмен файлами с устройствами поблизости и другие. Кроме того в конкретно данную сборку интегрирован браузер Google Chrome, антивирус Avast, и Активатор.

Запись образа на USB Флешку программой UltraIso

1) Установить и запустить программу UltraIso
2) В меню Файл нажмите на пункт Открыть, выберите скачанный образ Windows и нажмите Открыть.
3) Убедившись, что образ открыт — выберите в меню Самозагрузка пункт Записать образ Жесткого диска
4) В списке Disk Drive выберите вашу флэшку, в пункте Метод записи: USB-HDD+ и нажмите Записать
5) В появившемся окне об уничтожении информации Подсказка, нажмите кнопку Да Дождитесь, когда завершится запись (от 5 до 20 минут в зависимости от скорости записи флэшки)
6)Не вынимая флешки из USB-порта перезагрузите компьютер Сразу после начала перезапуска запустите BIOS, с помощью нажатия на клавиатуре Delete (Del) или F2 в зависимости от типа BIOSа В BIOS установите загрузку в первую очередь с USB-HDD
7) Сохраните настройки и выйдите из BIOS. Компьютер перезагрузится и начнет загрузку с флеш-накопителя

Активация системы

Систему можно активировать встроенным активатором нажав соответствующий ярлык на рабочем столе, в процессе активации необходимо согласится с добавлением задания на переактивацию

В систему предустановлен следующий софт

Google chrome
Avast Free Antivirus 2018
Активатор KMS

Контрольные суммы

SHA: d7bc90a47450cbcd4b29aa7efabba2a6b4d7a6d0
MD5: 2653531bcc1179dd45fc2e4e5f14c3bf
SVF: 99630DF5
Скриншоты:
Комментарий: 0 | Скачать | Размер раздачи: 3.75 GB

Скачать Windows 10x86x64 Pro Update 16299.371 v.29.18

Windows 10x86x64 Pro Update 16299.371 --- Год выпуска: 2018
Версия: v.29.18
Разработчик: Microsoft
Автор сборки:UralSOFT
Платформа: х86 bit
Совместимость с Windows7: частично
Язык интерфейса: только русский
Таблэтка: Не требуется
Системные требования:
Процессор:1 GHz processor or faster
Память:1 GB RAM for 32-bit and 2 GB RAM for 64-bit
Место на диске:16 GB for 32-bit and 20 GB for 64-bit
Описание:
Windows 10 — операционная система для персональных компьютеров, разработанная корпорацией Microsoft в рамках семейства Windows NT. После Windows 8 система получила номер 10, минуя 9. Система призвана стать единой для разных устройств, таких как персональные компьютеры, планшеты, смартфоны, консоли Xbox One и пр. Доступна единая платформа разработки и единый магазин универсальных приложений, совместимых со всеми поддерживаемыми устройствами. Среди значимых нововведений — голосовая помощница Кортана, возможность создания и переключения нескольких рабочих столов и др.
Данная сборка сделана на основе образа
ru_windows_10_multi-edition_vl_version_1709_updated_dec_2017_x64_dvd_100406352
ru_windows_10_multi-edition_vl_version_1709_updated_dec_2017_x86_dvd_100406558
Версия Pro
В раздаче присутствует один образ!Установка строго с БИОСа

Доп.Информация:

Обновлена до версии 16299.371
Изменен вид значков, папок, ярлыков.Службы оставлены по умолчанию, все на усмотрение конечного пользователя.
Все настройки по умолчанию!Интегрирован NET Framework 3.5 ,добавлены твики ПКМ (правая кнопка мыши).
Интегрированы обновления и необходимый набор программ, ( подробней в списке ИНТЕГРИРОВННО)
Установка может немного затянутся, прописываются ключи системы !
Применен универсальный загрузчик WinPE, с множеством функций!
Записывать программой RUFUS!!!
Если на завершающем этапе установки выходит ошибка- просто перезагрузите ваш компьютер и установка продолжится!

Контрольные суммы

CRC32: 016736B9
MD5: E2F3450628AF9950176FAA2CA75E1472
SHA-1: 5FB0C219450FF65DD193BFFB36A47A9FE18990DF

Состав программ загрузчика:

= Восстановление Windows 10 (только х86)
= Acronis® True Image™ Premium 2014 PP
= Paragon Hard Disk Manager 14 Premium
= Acronis® Disk Director™ 12
= HDD Low Level Format Tool
= Acronis® Recovery Expert
= Universal Virus Sniffer
= Paragon Alignment Tool
= Установка драйверов
= PartitionWizard
= Total Commander
= Explorer++
= Defraggler
= WinNTSetup
= Ultra ISO
= ChkDskGui
= PassReset
= Anti SMS
= Testdisk
= Win Snap
= WinMount
= AkelPad
= Bootice
= Drivexp
= AIDA64
= WinRAR
= 7-Zip

Интегрировано

µTorrent, версия 3.5.0.44294 3.5.0.44294 µTorrent_is1 BitTorrent, Inc
µTorrent 3.5.0.44294 uTorrent BitTorrent Inc.
7-Zip 17.01 beta 17.01 beta 7-Zip Igor Pavlov
Adobe Reader XI (11.0.22) - Russian [Русский (Россия)] 11.0.22 {AC76BA86-7AD7-1049-7B44-AB0000000001} Adobe Systems Incorporated
AIDA64 AIDA64 FinalWire Ltd.
AIMP 4.50.20584.50.2058 AIMP_is1 lrepacks.ru
CCleaner CCleaner Piriform Ltd.
K-Lite Mega Codec Pack 13.7.0 13.7.0 KLiteCodecPack_is1 KLCP
Microsoft OneDrive 18.044.0301.0006 OneDriveSetup.exe
Microsoft Visual C++ 2005 Redistributable - 8.0.50727.4053 8.0.50727.4053 {770657D0-A123-3C07-8E44-1C83EC895118}
Microsoft Visual C++ 2005 Redistributable - 8.0.50727.42 8.0.50727.42 {A49F249F-0C91-497F-86DF-B2585E8E76B7}
Microsoft Visual C++ 2005 Redistributable - 8.0.51011 8.0.51011 {a0fe116e-9a8a-466f-aee0-625cb7c207e3}
Microsoft Visual C++ 2005 Redistributable - 8.0.56336 8.0.56336 {7299052b-02a4-4627-81f2-1818da5d550d}
Microsoft Visual C++ 2005 Redistributable - 8.0.57103 8.0.57103 {d8fea624-4f2c-432d-9a54-6eee9cd1a77e}
Microsoft Visual C++ 2005 Redistributable - 8.0.58299 8.0.58299 {052bac4a-6f79-46d4-a024-1ce1b4f73cd4}
Microsoft Visual C++ 2005 Redistributable - 8.0.59193 8.0.59193 {837b34e3-7c30-493c-8f6a-2b0f04e2912c}
Microsoft Visual C++ 2005 Redistributable - 8.0.61001 8.0.61001 {710f4c1c-cc18-4c49-8cbf-51240c89a1a2}
Microsoft Visual C++ 2008 Redistributable - 9.0.21022 9.0.21022 {FF66E9F6-83E7-3A3E-AF14-8DE9A809A6A4}
Microsoft Visual C++ 2008 Redistributable - 9.0.21022.0 [Русский (Россия)] 9.0.21022 {DCB46B42-723F-350E-B18A-449BC6C21636}
Microsoft Visual C++ 2008 Redistributable - 9.0.21022.218 9.0.21022.218 {E503B4BF-F7BB-3D5F-8BC8-F694B1CFF942}
Microsoft Visual C++ 2008 Redistributable - 9.0.30411 9.0.30411 {5DA8F6CD-C70E-39D8-8430-3D9808D6BD17}
Microsoft Visual C++ 2008 Redistributable - 9.0.30729 9.0.30729 {3C3D696B-0DB7-3C6D-A356-3DB8CE541918}
Microsoft Visual C++ 2008 Redistributable - 9.0.30729.0 [Русский (Россия)] 9.0.30729 {527BBE2F-1FED-3D8B-91CB-4DB0F838E69E}
Microsoft Visual C++ 2008 Redistributable - 9.0.30729.17 9.0.30729 {9A25302D-30C0-39D9-BD6F-21E6EC160475}
Microsoft Visual C++ 2008 Redistributable - 9.0.30729.4048 9.0.30729.4048 {5B1F2843-B379-3FF2-B0D3-64DD143ED53A}
Microsoft Visual C++ 2008 Redistributable - 9.0.30729.4148 9.0.30729.4148 {1F1C2DFC-2D24-3E06-BCB8-725134ADF989}
Microsoft Visual C++ 2008 Redistributable - 9.0.30729.4148.0 9.0.30729.4148 {002D9D5E-29BA-3E6D-9BC4-3D7D6DBC735C}
Microsoft Visual C++ 2008 Redistributable - 9.0.30729.5570 9.0.30729.5570 {86CE85E6-DBAC-3FFD-B977-E4B79F83C909}
Microsoft Visual C++ 2008 Redistributable - 9.0.30729.6161 9.0.30729.6161 {9BE518E6-ECC6-35A9-88E4-87755C07200F}
Microsoft Visual C++ 2010 Redistributable - 10.0.30319 10.0.30319 {196BB40D-1578-3D01-B289-BEFC77A11A1E}
Microsoft Visual C++ 2010 Redistributable - 10.0.40219 10.0.40219 {F0C3E5D1-1ADE-321E-8167-68EF0DE699A5}
Microsoft Visual C++ 2012 Redistributable () - 11.0.50727 Eng 11.0.50727.1 {22154f09-719a-4619-bb71-5b3356999fbf}
Microsoft Visual C++ 2012 Redistributable () - 11.0.50727 11.0.50727.1 {6c95b50e-cb5a-4a1f-a7b4-8a6004f8dd6a}
Microsoft Visual C++ 2012 Redistributable () - 11.0.51106 Eng 11.0.51106.1 {8e70e4e1-06d7-470b-9f74-a51bef21088e}
Microsoft Visual C++ 2012 Redistributable () - 11.0.51106 11.0.51106.1 {615bc16d-60f5-482e-91b3-b51d8130963b}
Microsoft Visual C++ 2012 Redistributable () - 11.0.60610 Eng 11.0.60610.1 {95716cce-fc71-413f-8ad5-56c2892d4b3a}
Microsoft Visual C++ 2012 Redistributable () - 11.0.60610 11.0.60610.1 {01db25f3-1b76-4d97-88c8-1c90634d88fb}
Microsoft Visual C++ 2012 Redistributable () - 11.0.61030 Eng 11.0.61030.0 {33d1fd90-4274-48a1-9bc1-97e33d9c2d6f}
Microsoft Visual C++ 2012 Redistributable () - 11.0.61030 11.0.61030.0 {f0080ca2-80ae-4958-b6eb-e8fa916d744a}
Microsoft Visual C++ 2012 Additional Runtime - 11.0.50727 11.0.50727 {FDB30193-FDA0-3DAA-ACCA-A75EEFE53607}
Microsoft Visual C++ 2012 Additional Runtime - 11.0.51106 11.0.51106 {6C772996-BFF3-3C8C-860B-B3D48FF05D65}
Microsoft Visual C++ 2012 Additional Runtime - 11.0.60610 11.0.60610 {3D6AD258-61EA-35F5-812C-B7A02152996E}
Microsoft Visual C++ 2012 Additional Runtime - 11.0.61030 11.0.61030 {B175520C-86A2-35A7-8619-86DC379688B9}
Microsoft Visual C++ 2012 Minimum Runtime - 11.0.50727 11.0.50727 {2F73A7B2-E50E-39A6-9ABC-EF89E4C62E36}
Microsoft Visual C++ 2012 Minimum Runtime - 11.0.51106 11.0.51106 {E824E81C-80A4-3DFF-B5F9-4842A9FF5F7F}
Microsoft Visual C++ 2012 Minimum Runtime - 11.0.60610 11.0.60610 {E7D4E834-93EB-351F-B8FB-82CDAE623003}
Microsoft Visual C++ 2012 Minimum Runtime - 11.0.61030 11.0.61030 {BD95A8CD-1D9F-35AD-981A-3E7925026EBB}
Microsoft Visual C++ 2013 Redistributable () - 12.0.21005 Eng 12.0.21005.1 {ce085a78-074e-4823-8dc1-8a721b94b76d}
Microsoft Visual C++ 2013 Redistributable () - 12.0.21005 12.0.21005.1 {2af972c7-13b0-4978-92a8-fee26a4fb4e9}
Microsoft Visual C++ 2013 Redistributable () - 12.0.30501 Eng 12.0.30501.0 {f65db027-aff3-4070-886a-0d87064aabb1}
Microsoft Visual C++ 2013 Redistributable () - 12.0.30501 12.0.30501.0 {b55f7208-e02b-4828-ac78-59c73ddf5bc7}
Microsoft Visual C++ 2013 Redistributable () - 12.0.40649 Eng 12.0.40649.5 {35b83883-40fa-423c-ae73-2aff7e1ea820}
Microsoft Visual C++ 2013 Redistributable () - 12.0.40649 12.0.40649.5 {78142960-066b-4581-b984-0bdcf560c4be}
Microsoft Visual C++ 2013 Redistributable () - 12.0.40660 Eng 12.0.40660.0 {61087a79-ac85-455c-934d-1fa22cc64f36}
Microsoft Visual C++ 2013 Redistributable () - 12.0.40660 12.0.40660.0 {10dc8dbf-d3d7-4e23-be07-120fe5c66b78}
Microsoft Visual C++ 2013 Redistributable () - 12.0.40664 Eng 12.0.40664.0 {9dff3540-fc85-4ed5-ac84-9e3c7fd8bece}
Microsoft Visual C++ 2013 Redistributable () - 12.0.40664 12.0.40664.0 {d2c8df0e-f15d-4426-9e51-f13f329f9cb4}
Microsoft Visual C++ 2013 Additional Runtime - 12.0.21005 12.0.21005 {F8CFEB22-A2E7-3971-9EDA-4B11EDEFC185}
Microsoft Visual C++ 2013 Additional Runtime - 12.0.40649 12.0.40649 {A8589745-51BC-3963-B4E9-201CF8693538}
Microsoft Visual C++ 2013 Additional Runtime - 12.0.40660 12.0.40660 {7DAD0258-515C-3DD4-8964-BD714199E0F7}
Microsoft Visual C++ 2013 Additional Runtime - 12.0.40664 12.0.40664 {D401961D-3A20-3AC7-943B-6139D5BD490A}
Microsoft Visual C++ 2013 Minimum Runtime - 12.0.21005 12.0.21005 {13A4EE12-23EA-3371-91EE-EFB36DDFFF3E}
Microsoft Visual C++ 2013 Minimum Runtime - 12.0.40649 12.0.40649 {DEA7F8E3-B7B9-3C3C-945B-7F8CE9041748}
Microsoft Visual C++ 2013 Minimum Runtime - 12.0.40660 12.0.40660 {E30D8B21-D82D-3211-82CC-0F0A5D1495E8}
Microsoft Visual C++ 2013 Minimum Runtime - 12.0.40664 12.0.40664 {8122DAB1-ED4D-3676-BB0A-CA368196543E}
Microsoft Visual C++ 2017 Redistributable () - 14.12.25810 14.12.25810.0 {56e11d69-7cc9-40a5-a4f9-8f6190c4d84d}
Microsoft Visual C++ 2017 Additional Runtime - 14.12.2581014.12.25810 {7FED75A1-600C-394B-8376-712E2A8861F2}
Microsoft Visual C++ 2017 Minimum Runtime - 14.12.25810 14.12.25810 {828952EB-5572-3666-8CA9-000B6CE79350}
Notepad++ (32-bit ) 7.5.3 Notepad++ Notepad++ Team
The KMPlayer RePack by CUTA [Русский (Россия)] 4.2.2.5 - (build 2) The KMPlayer RePack by CUTA RePack by CUTA
UltraISO UltraISO EZB Systems, Inc.
Unlocker 1.9.2 1.9.2 Unlocker Cedrick Collomb
WinRAR 5.50 5.50 WinRAR_is1 lrepacks.ru

Лечение

Система активируется автоматически ! На непредвиденный случай добавлены активаторы в папке HELP на рабочем столе!!!

Скриншоты



Комментарий: 0 | Скачать | Размер раздачи: 5.65 GB

Скачать Другая я [01-04 из 04] (2018) WEBRip-AVC от Files-x

-Другая я -
Год выхода: 2018
Жанр: Мелодрама
Режиссер: Ольга Золотарева
В ролях: Анастасия Задорожная, Владимир Гориславец, Вячеслав Довженко, Валентин Томусяк, Анна Расстальная, Марк Дробот, Павел Пискун

-
Описание:
-...Виктория и Вероника Шумейко - сестры-близнецы. Однако они с детства прикладывали столько усилий, чтобы стать максимально непохожими друг на друга, что теперь их сложно принять даже за родственниц. И лишь авантюра, в которую одна сестра втягивает другую, заставит девушек понять, как много у них общего, разобраться в себе и начать новую, более гармоничную жизнь...-

Страна: Украина / Кинокомпания "Упс"
Длительность: 4 х 00:48:00 час.
Перевод: Не требуется (русский)
Cубтитры: Отсутствуют
-Тех.данные
Качество: WEBRip-AVC
Формат: MKV
Видеокодек: h.264
Аудиокодек: AC3
Видео: MPEG-4 AVC, ~ 1600 Кбит/с, 1024x576, 25 кадр/с
Аудио: AC3, 2 ch, 192 Кбит/с
-

Скриншоты:

Комментарий: 0 | Скачать | Размер раздачи: 2.44 GB

Скачать Far Cry 5: Gold Edition v 1.4.0.0 + DLCs (2018) [Rus/Eng] RePack by R.G. Механики

-Far Cry 5: Gold Edition-
Год выпуска: 2018
Жанр: Action (Shooter) / Adventure / Open World / 1st Person / 3D
Разработчик: Ubisoft Montreal, Red Storm
Издатель: Ubisoft
Платформа: PC
Тип издания: RePack
Язык интерфейса: Русский / Английский
Язык озвучки: Русский / Английский
Таблэтка: Вшита (CPY)-Системные требования :
    Операционная система: Windows 7 / 8.1 / 10 (64 bit)
    Процессор: Intel Core i5-2400 3.1 GHz / AMD FX-6300 3.5 GHz or equivalent
    Оперативная память: 8 Gb
    Видеокарта: NVIDIA GeForce GTX 670 or AMD R9 270 (2GB VRAM with Shader Model 5.0 or better)
    Свободное место на жестком диске: 30 гб
    Файловая система: NTFS
-Описание: Действие новой игры Far Cry 5 из знаменитой серии разворачивается в США. Добро пожаловать в округ Хоуп штата Монтана. Этот живописный уголок стал домом для людей, по-настоящему ценящих свободу... а еще для секты религиозных фанатиков под названием Проект «Врата Эдема». Секту возглавляет Иосиф Сид, считающий себя пророком, вместе с братьями и сестрой – так называемыми Вестниками.
Секта пытается регулировать все стороны жизни жителей округа, где когда-то царили мир и спокойствие. Прибыв в Монтану, ваш герой видит, что представители «Врат Эдема» готовятся установить над регионом полный контроль. Вам предстоит сплотить жителей округа и пробудить в них волю к борьбе за свободу.
Вы сможете исследовать просторы округа Хоуп, в том числе реки и воздушное пространство, используя множество видов модифицируемого оружия и транспорта – такого разнообразного набора снаряжения в Far Cry еще не было! Вы окажетесь в центре захватывающей истории в непредсказуемом мире, реагирующем на все ваши действия. Каждое новое место, которое вы посетите, и люди, с которыми вы встретитесь, окажут существенное влияние на развитие событий. Вас ждет немало сюрпризов!.-

Особенности игры

Пробудите волю к борьбе с сектой фанатиков. Вашему герою предстоит сплотить жителей округа Хоуп в штате Монтана и возглавить сопротивление, чтобы освободить регион от сектантов.
-Множество запоминающихся персонажей: хозяйка салуна Мэри Мэй, летчик и примерный семьянин Ник Рай, пастор Джером Джеффрис, которому пришлось оставить служение, и другие.
-Нанимайте персонажей, которые помогут в вашей борьбе, и совершенствуйте их особые навыки (до трех одновременно), чтобы расстроить планы «эдемщиков».
-Также вам помогут специально обученные животные, которым вы сможете отдавать команды в зависимости от выбранного стиля игры.
-А еще в деле Сопротивления вам пригодится помощь друзей: сюжетная кампания доступна для прохождения в совместном режиме для двух игроков.
Пройдите свой путь. В игре предоставлена полная свобода действий: вы сами решаете, где, что и как лучше делать.
-Прибыв в округ Хоуп, вы сами определите для себя порядок действий.
-Впервые в Far Cry вы сможете играть за собственного неповторимого героя – выберите аватар и воспользуйтесь возможностями персонализации.
-С помощью игрового редактора карт вы сможете создавать уникальные приключения, полные настоящего безумия в стиле Far Cry, чтобы играть вместе с друзьями или соревноваться против них!
Постоянно меняющийся мир. Принимайте собственные решения в борьбе против Иосифа Сида и его секты фанатиков в открытом мире, который реагирует на каждое ваше действие.
-Окружающий мир будет существенно изменяться в зависимости от успехов сопротивления, именно ваши действия будут влиять на дальнейшее развитие событий.
-Сорвите планы сектантов по подготовке к концу света и бросьте вызов Вестникам. Вас ждут масштабные баталии на просторах открытого мира.
-Развитие событий напрямую зависит от ваших решений, новые возможности для игрового процесса будут появляться в самые неожиданные моменты.
Новая техника.
-Мчитесь по просторам округа на хорошо знакомых американских транспортных средствах – вы сможете управлять собственным «железным конем»: маслкаром, трейлером, квадроциклом или трактором.
-Управляйте самолетом и участвуйте в масштабных воздушных сражениях против сектантов или нанесите точный удар с воздуха.
-Исследуйте каждый уголок Монтаны и насладитесь рыбалкой и охотой в этом живописном краю

Особенности RePack_а

Вырезан игровой редактор/Ничего не перекодировано
Версия игры - v1.4.0
Возможность скачать лишь нужную локализацию (voices_ru.bin - русская, voices_en.bin - английская)
Возможность выбора сочетания текста и озвучки
RePack от R.G. Механики

FAQ

Q: Игра не запускается.
A: Установите обновление KB2670838 для Windows 7 и Microsoft Net Framework 4.6.1.
Q: Игра часто вылетает на рабочий стол.
A: Увеличьте файл подкачки в системе / установите видеодрайвер версии 391.24.
Q: Возникают ошибки в процессе установки.
A: Запустите setup.exe в режиме совместимости с Windows 7.
Q: Ошибка 000001. Ваш компьютер не подходит под минимальные системные требования.
A: Обладатели процессоров AMD Phenom II и других с похожим набором инструкций не смогут запустить игру на своих компьютерах.
Q: Помогите! Игра не сохраняется!
A: Способ 1. После первого запуска игры идём по пути %userprofile%/Dоcuments/ и у папки CPY_SAVES включаем индексирование файлов (Свойства ➜ Общие ➜ Атрибуты (другие) ➜ Разрешить индексировать содержимое файлов).
A: Способ 2. Открываем файл CPY.ini. В строке SavePath=%DEFAULT_CPY_DIR% указываем адрес хранения файлов. Например: SavePath=D:/Games/Far Cry 5
После первого запуска игры идём по пути D:/Games/Far Cry 5 и у папки CPY_SAVES включаем индексирование файлов (Свойства ➜ Общие ➜ Атрибуты (другие) ➜ Разрешить индексировать содержимое файлов).
Q: Игра вылетает после начального ролика.
A: Установите ограничение в 30 FPS. Позже его можно будет убрать.

Установка

1.Запустить setup.exe
2.Следовать инструкциям установщика
3.Играть
-Скриншоты- -
Комментарий: 0 | Скачать | Размер раздачи: 18.67 GB

Скачать DriverPack Solution 17.7.73.7 Full (2018) PC | ISO

DriverPack Solution 17.7.73.7 Full


Год выпуска: 2018
Версия: 17.7.73.7 Full
Разработчик: DriverPack Solution
Язык интерфейса: Русский, Английский и другие
Лекарство: Не требуется


DriverPack Solution —это самая популярная программа для автоматической установки, обновления и поиска драйверов. Это универсальный менеджер установки драйверов для всех версий Windows. В отличие от встроенной в Windows 7 функции обновления драйверов, этой программой можно пользоваться даже без наличия Интернета и для поиска/установки драйверов не только на устройства популярных вендеров (как в случае с Windows Update).

Важно:

После запуска программы не нажимайте "Установить автоматически", Установку ставьте эксперта, затем зайдите в раздел софт и уберите галочки с программ. В противном случае при установке драйверов будут установлены программы.

Дополнительная информация:

Программу используют:
домашние компьютерные пользователи
системные администраторы
компьютерные мастера
сервис-центры по ремонту компьютеров
и другие люди, которые часто сталкиваются с установкой/переустановкой Windows
Плюсы в использовании программы:
интерфейс, дружелюбный и интуитивно понятный
интеллектуальная технология классификации драйверов
несколько режимов установки (для профессионала, для начинающего пользователя)
многоязычность (не требует лингвистических познаний и усилий): английский, русский, украинский, немецкий, французский, итальянский, испанский, турецкий, азербайджанский, голландский, литовский
проверка доступности новых версий программы (возможность быстрого и бесплатного обновления)
Функциональные возможности DriverPack Solution:
эффективный и быстрый поиск драйверов
установка драйверов на практически любой компьютер, всего за несколько минут
проведение «даунгрейда» с Windows Vista на Windows XP (даже если производитель не разместил на своем сайте драйвера под Windows XP)
поиск и загрузка недостающего драйвера из Интернета, по заданным параметрам применения драйвера
быстрое обновление существующего набора установленных драйверов до более актуальных версий
помощь в создании и использовании собственных баз драйверов
Основные возможности:
Работа с любыми пакетами драйверов (архивы 7z, zip), для любых ОС начиная с Windows XP
Работа как под 32 разрядной, так и под 64 разрядной
Возможность групповой и выборочной установки драйверов
Умение обрабатывать файлы finish в пакетах Bashrat'а
Прозрачная настройка программы (все параметры изменяются через настройки). Все настройки хранятся в одном ini-файле
Быстрое создание базы драйверов (также возможность создать всех БД одной кнопкой)
Дружелюбный и отзывчивый интерфейс
Просмотр списка устройств для локального ПК
Просмотр дазы драйверов для пакета драйверов
Возможность работать с любого носителя
Возможность добавлять и запускать из интерфейса программы дополнительные утилиты (для добавления воспользуйтесь меню настройки-
параметры – дополнительные утилиты). Т.е в какой то мере может использоваться как авторан для ваших сборников
Проверка обновлений программы через интернет
Возможность тихой установки
Мультиязычный интерфейс

После запуска программы не нажимайте "Установить автоматически":

1. Открываем образ через DaemonTools или WinRar, 7Zip
2. Заходим в образ и копируем все файлы от туда в свою папку, предварительно созданную на жёстком.
3. Запускаем прогу через DriverPack.exe в папке на жёстком. Если подключены к интернету - по желанию
отказываемся от автопоиска драйверов через него.
4. После запуска программы - НЕ НАЖИМАТЬ ЗЕЛЕНУЮ КНОПКУ ПО ЦЕНТРУ "Настроить компьютер
автоматически".
За место этого, нажать внизу в нижней панеле по центру шестерёнку - режим эксперта (3-я по счету вкладка).
После этого откроется боковая панель слева.
5. Если не нужны программы которые ставятся по умолчанию - тыкаем по квадратику ( с левой стороны, 2 -й
после ключика) и снимаем галки с программ которые не нужны.
6. Нажимаем на шестерёнку (5-я по счёту) и настраиваем всё по своему вкусу - там всё доступно и понятно.
Активируем на постоянку :
Режим эксперта;
Уменьшить размер панели навигации;
Отключаем установку рекомендованных программ.
По желанию отключаем:
Автоматическую установку рекомендуемых драйверов (смотрим что нам нужно, ставим галочки сами на те
драйвера которые считаем правильными для нас);
Установку драйверных утилит и полезных приложений;
DriverPack Protekt;
Точку восстановления;
Отправлять статистику по работе системы.
7. Если делать всё из этой папки(на флехе или на жёстком) - то достаточно один раз настроить. Все настройки
сохранятся на постоянку. Если запускать с образа - то настройки надо будет применять после каждого
запуска.
P.S.
Пользовался DriverPack Solution 17.7.33 до этого около полугода - устанавливал драйвера на десятки ноутов и компов с разными системами. В основном не было ни каких проблем. Экономит кучу времени и нервов).
На старые ноуты, приходилось бывало руками искать и ковырять драйвера под Win8.1, Win10, но это единичные, частные случаи, от такого количества компов.

Изменения в версии:

Обновлены драйвер паки до версии 18.04.2

Контрольные суммы:


CRC32: 3D10A86A
MD5: EA423E0D09C8A151F7C919D3B44D55E6
SHA-1: 41ED2CE6872722B940A02930F3C552EF57618CF5

Скриншоты:

Комментарий: 0 | Скачать | Размер раздачи: 16.31 GB

Скачать Жили-были (2017) WEB-DLRip от MegaPeer | iTunes

Жили-были
Год выхода: 2017
Жанр: Комедия
Режиссер: Эдуард Парри
В ролях: Федор Добронравов, Ирина Розанова, Роман Мадянов, Виктор Супрун, Владимир Капустин, Альбина Евтушевская,Алексей Ведерников, Ирина Сойкина, Владимир Карпов
- -Описание:
Старинная деревня в русской глубинке. Из жителей только два одиноких немолодых мужчины и внезапно овдовевшая женщина. Один из друзей решает, что пора завязывать с одиночеством и собирается предложить вдове руку и сердце. Но второй мужчина в корне с этим не согласен и тоже претендует на вакантное место. Лучшие друзья объявляют друг другу войну.
--
Страна: Россия
Производство: Продюсерский центр Фёдора Добронравова
Перевод: Русский | iTunes
Субтитры: Отсутствуют
Продолжительность: 01:26:55
--Тех.данные
Качество: WEB-DLRip
Формат: AVI
Видеокодек: XviD
Аудиокодек: AC3
Видео:XviD, 720x304, 23.976 fps, 1861 kbps
Audio:AC3, 6 ch, 384 kbps
--

Скриншоты:

Комментарий: 1 | Скачать | Размер раздачи: 1.37 GB

Скачать Огненный ангел [01-04 из 04] (2018) WEB-DLRip

-Огненный ангел -
Год выхода: 2018
Жанр: Психологический триллер
Режиссер: Ольга Мотина
В ролях: Полина Филоненко, Алёна Савастова, Степан Бекетов, Кирилл Запорожский, Евгений Терских, Дмитрий Поднозов, Оксана Базилевич, Анастасия Шалыгина, Антон Чернов

-
Описание:
-...После аварии 11 лет назад Ева Заринская потеряла память. О своем прошлом она знает только по рассказам мужа Дмитрия. Проведя много лет заграницей, супруги возвращаются на родину. С Евой начинают происходить непонятные вещи: снятся странные сны, в памяти всплывают необъяснимые воспоминания, в которых ее преследует образ маленькой дочери. Только, по словам Дмитрия, у Евы никогда не было детей. Но можно ли ему верить? Она все больше сомневается в его словах, мало того, не понимает, кто на самом деле этот человек, с которым живет столько лет. Отчаянно пытаясь вспомнить детали своей прошлого, Ева приступает к расследованию....-


Страна: Россия / Кинокомпания "Марс Медиа Энтертейнмент"
Длительность: 4 х ~ 00:44:00 час.
Перевод: Не требуется (русский)
Cубтитры: Отсутствуют
-Тех.данные
Качество: WEB-DLRip
Формат: AVI
Видеокодек: XviD
Аудиокодек: AC3
Видео: XviD, ~ 1500 Кбит/с, 720x400
Аудио: AC3, 2 ch, 192 Кбит/с
-

Скриншоты:

Комментарий: 0 | Скачать | Размер раздачи: 2.16 GB

Скачать Обыкновенное чудо (Марк Захаров) [1978, СССР, сказка, мелодрама, музыкальный, DVD9]

Обыкновенное чудо- Страна: СССР
Студия: "Мосфильм"
Жанр: музыкальная сказка, мелодрама
Год выпуска: 1978
Продолжительность: 02:17:38 (01:08:45 + 01:08:53)-Режиссер: Марк Захаров
В ролях: Олег Янковский, Ирина Купченко, Александр Абдулов, Евгения Симонова, Евгений Леонов, Андрей Миронов, Ервант Арзуманян, Екатерина Васильева, Юрий Соломин, Всеволод Ларионов, Андрей Леонов, Нина Пушкова, Валентина Воилкова, Владимир Долинский, Андрей Леонов, Ольга Вяликова, Геннадий Егоров, Татьяна Игнатова, Вадим Урюпин, Владимир Яновскис, Михаил Розанов, Олег Фёдоров-Жил-был волшебник, который, на беду свою, был бессмертен. На беду - потому что имел мужество полюбить смертную женщину и жениться на ней: "Мне суждено пережить тебя и затосковать навеки..." И вот, чтобы развлечь жену, он придумывает для неё сказку - волшебник превращает в прекрасного юношу обыкновенного лесного медведя и ставит при этом такое условие: если юноша хочет снова стать медведем и вернуться в родной лес, его должна поцеловать принцесса. Казалось бы, всё просто, но Принцесса и Медведь полюбили друг друга...
"Слава храбрецам, которые осмеливаются любить, зная, что всему этому придет конец. Слава безумцам, которые живут так, как будто они бессмертны. Любите, любите друг друга, да и всех нас заодно, не остывайте, не отступайте - и вы будете так счастливы, что это просто чудо!.." (Евгений Шварц)
Доп. информация: По одноименной пьесе Евгения Шварца.
Сценарий: Евгений Шварц, Марк Захаров
Оператор: Николай Немоляев
Художник: Людмила Кусакова
Композитор: Геннадий Гладков
Стихи: Юлий Ким
Вокал: Андрей Миронов, Леонид Серебренников, Лариса Долина
Ограничения на просмотр: для любой зрительской аудитории-

Интересные факты

  • Это вторая экранизация пьесы Евгения Шварца. Первая была снята в 1964 году Эрастом Гариным.
  • В доме Волшебника висит изображение дракона.
    Образцом послужила гравюра из трактата начала XVIII века по оптике, иллюстрирующая, что такое угол зрения, - Johannes Zahn, "The radiating eye" ("Oculus Artificialis Teledioptricus Sive Telescopium") (1702).
  • Бонусы: фильмографии
    Меню: есть, анимированное, озвученное
    Тип релиза: DVD9 ("Крупный план", полная реставрация изображения и звука)
    Контейнер: DVD Video
    Видео: PAL 4:3 (720x576), 25 fps, VBR, 6500 kbps
    Аудио 1: Russian (Dolby AC3, 6 ch, 448 kbps, 48 kHz)
    Аудио 2: Russian (Dolby AC3, 1 ch, 448 kbps, 48 kHz)
    Субтитры: нет-

    Отчет DVDInfo

    Size: 7.48 Gb ( 7 846 764 KBytes ) - DVD-9
    Enabled regions: 1, 2, 3, 4, 5, 6, 7, 8
    VTS_01 :
    Play Length: 00:00:51
    Video: PAL 4:3 (720x576) VBR
    VTS_02 :
    Play Length: 01:08:45
    Video: PAL 4:3 (720x576) VBR
    Audio:
    Russian (Dolby AC3, 6 ch)
    Russian (Dolby AC3, 1 ch)
    VTS_03 :
    Play Length: 01:08:53
    Video: PAL 4:3 (720x576) VBR
    Audio:
    Russian (Dolby AC3, 6 ch)
    Russian (Dolby AC3, 1 ch)
    Menu Video:
    PAL 4:3 (720x576) VBR
    Menu Subtitles:
    Not specified
    Menu English Language Unit :
    Root Menu

    Отчет MediaInfo

    Полное имя : CHUDO\VIDEO_TS\VTS_02_1.VOB
    Формат : MPEG-PS
    Размер файла : 1024 Мбайт
    Продолжительность : 19 м.
    Общий поток : 7518 Кбит/сек
    Видео
    Идентификатор : 224 (0xE0)
    Формат : MPEG Video
    Версия формата : Version 2
    Профиль формата : [email protected]
    Параметр BVOP формата : Да
    Параметр матрицы формата : Выборочная
    Параметр GOP формата : M=3, N=15
    Продолжительность : 19 м.
    Битрейт : 6473 Кбит/сек
    Максимальный битрейт : 6493 Кбит/сек
    Ширина : 720 пикселей
    Высота : 576 пикселей
    Соотношение сторон : 4:3
    Частота кадров : 25,000 кадров/сек
    Стандарт вещания : PAL
    Цветовое пространство : YUV
    Субдискретизация насыщенности : 4:2:0
    Битовая глубина : 8 бит
    Тип развёртки : Чересстрочная
    Порядок развёртки : Верхнее поле первое
    Метод сжатия : С потерями
    Бит/(Пиксели*Кадры) : 0.624
    Размер потока : 881 Мбайт (86%)
    Аудио #1
    Идентификатор : 189 (0xBD)-128 (0x80)
    Формат : AC-3
    Формат/Информация : Audio Coding 3
    Расширение режима : CM (complete main)
    Режим смешивания : DVD-Video
    Продолжительность : 19 м.
    Вид битрейта : Постоянный
    Битрейт : 448 Кбит/сек
    Каналы : 6 каналов
    Расположение каналов : Front: L C R, Side: L R, LFE
    Частота : 48,0 КГц
    Битовая глубина : 16 бит
    Метод сжатия : С потерями
    Задержка видео : -80 мс.
    Размер потока : 61,0 Мбайт (6%)
    Аудио #2
    Идентификатор : 189 (0xBD)-129 (0x81)
    Формат : AC-3
    Формат/Информация : Audio Coding 3
    Расширение режима : CM (complete main)
    Режим смешивания : DVD-Video
    Продолжительность : 19 м.
    Вид битрейта : Постоянный
    Битрейт : 448 Кбит/сек
    Каналы : 1 канал
    Расположение каналов : Front: C
    Частота : 48,0 КГц
    Битовая глубина : 16 бит
    Метод сжатия : С потерями
    Задержка видео : -80 мс.
    Размер потока : 61,0 Мбайт (6%)

    Сканы обложки и диска

    Скриншоты меню

    Скриншоты доп. материалов

    Скриншот названия

    Скриншоты

    Комментарий: 0 | Скачать | Размер раздачи: 7.48 GB

    Скачать Республика ШКИД (Геннадий Полока) [1966, трагикомедия, DVD5], реставрация от "Ленфильм Видео"

    Республика ШКИД- Год выпуска: 1966
    Страна: СССР
    Жанр: трагикомедия
    Продолжительность: 01:37:10
    Русские субтитры: нет
    Режиссер: Геннадий Полока
    В ролях: Сергей Юрский, Юлия Бурыгина, Павел Луспекаев, Александр Мельников, Анатолий Столбов, Георгий Колосов, Вера Титова, Лев Вайнштейн, Виктор Перевалов, Александр Кавалеров, Николай Годовиков, Вячеслав Голубков, Владимир Колесников, Александр Липов, Анатолий Подшивалов, Юрий Рычков-Двадцатые годы прошлого века. Послереволюционный беспредел. "Трепещите, халдеи!" По улицам Питера шныряют колоритные и жалкие беспризорники, которых время от времени вылавливают и направляют в детские приемники. В одном из них - школе имени Достоевского (ШКИД) - собрались голодные, наглые и сообразительные оборвыши. Этим "приютом комедиантов" управляет директор, не потеявший ни чести, ни интеллигентности. Его обезоруживающее доверие научило ребят мужскому достоинству, помогло не раствориться в беге смутного времени...-Доп. информация: В допах 3 сэмпла реставраций других фильмов в сравнении с исходником.
    Подробней под спойлером "Меню"-Качество: DVD5
    Формат: DVD Video
    Видео кодек: MPEG2
    Аудио кодек: AC3
    Видео: PAL 16:9 (720x576) VBR Auto Letterboxed
    Аудио: Audio #1: AC3, 2/0 ch, 192Kbps, Delay 0 mSec-
    Комментарий: 0 | Скачать | Размер раздачи: 3.82 GB
    Рейтинг@Mail.ru