[ Сегодня на трекере фрилич! Идет свободное скачивание без начисления Download ]

Вам и не снилось. Шпионы его величества / (Эфир от 2014.02.12) (Рен-ТВ) [2014 г., документальный, SATRip]

 

Создавать темы 18-Фев-2014 17:32

-Вам и не снилось. Шпионы его величества-- Производство: Россия
Жанр: документальный
Год выпуска: 2014 г.
Продолжительность: 02:25:39
Перевод: Не требуется
Оригинальный аудиопоток: русский
Режиссер: Рен-ТВ-Описание: Мог ли Александр Сергеевич Пушкин быть агентом влияния русского царя? Мог ли великий русский поэт перевоплотиться в великого французского романиста Александра Дюма? Что связывало графа Калиостро, Казанову и барона Мюнхгаузена? Какую роль в жизни этих загадочных персонажей сыграла Россия? Кто они на самом деле: авантюристы или шпионы? Был ли российский писатель Яков Иванович де Санглену шпионом и адъютантом Наполеона?-Качество видео: SATRip
Контейнер: AVI
Видео кодек: XviD
Аудио кодек: MP3
Видео: 720x544 (1.32:1), 25 fps, XviD build 50 ~1799 kbps avg, 0.18 bit/pixel
Аудио: 48 kHz, MPEG Layer 3, 2 ch, ~128.00 kbps avg
Cубтитры: отсутствуют

Media Info

General
Complete name : D:\Vam.i.ne.snilos.2014.02.12.SATRip.avi
Format : AVI
Format/Info : Audio Video Interleave
File size : 1.97 GiB
Duration : 2h 25mn
Overall bit rate : 1 938 Kbps
Writing library : VirtualDub build 32706/release
Video
ID : 0
Format : MPEG-4 Visual
Format profile : Advanced [email protected]
Format settings, BVOP : 2
Format settings, QPel : No
Format settings, GMC : No warppoints
Format settings, Matrix : Default (MPEG)
Codec ID : XVID
Codec ID/Hint : XviD
Duration : 2h 25mn
Bit rate : 1 800 Kbps
Width : 720 pixels
Height : 544 pixels
Display aspect ratio : 4:3
Frame rate : 25.000 fps
Color space : YUV
Chroma subsampling : 4:2:0
Bit depth : 8 bits
Scan type : Progressive
Compression mode : Lossy
Bits/(Pixel*Frame) : 0.184
Stream size : 1.83 GiB (93%)
Writing library : XviD 1.2.1 (UTC 2008-12-04)
Audio
ID : 1
Format : MPEG Audio
Format version : Version 1
Format profile : Layer 3
Mode : Joint stereo
Mode extension : MS Stereo
Codec ID : 55
Codec ID/Hint : MP3
Duration : 2h 25mn
Bit rate mode : Constant
Bit rate : 128 Kbps
Channel count : 2 channels
Sampling rate : 48.0 KHz
Compression mode : Lossy
Stream size : 133 MiB (7%)
Alignment : Split accross interleaves
Interleave, duration : 40 ms (1.00 video frame)
Interleave, preload duration : 500 ms

Скриншот c названием фильма

Скриншоты

Яндекс.Метрика
Рейтинг@Mail.ru