[ Сегодня на трекере фрилич! Идет свободное скачивание без начисления Download ]

Биохимия предательства (Константин Семин) [2014, документальный, SATRip]

 

Создавать темы 17-Фев-2014 21:10

Биохимия предательства
Год выпуска: 2014
Страна: Россия
Жанр: документальный
Продолжительность: 01:08:44
Перевод: Не требуется
Русские субтитры: нет
Режиссер: Константин Семин
Описание: Почему наше общество перестает замечать героев и становится терпимым к предателям? Почему оправдание находится поступкам, которые еще вчера казались немыслимыми?
Кто управляет процессом ниспровержения кумиров и создания культа изменников? Что это — стихийный процесс или продуманная стратегия? Что такое организационное оружие и психологическая война, по каким принципам эта война ведется?
Кто мечтает освободить Россию от ее народов, стравливая их между собой?
Авторы фильма "Биохимия предательства" изучили природу предательства и выявили связи, объединяющие предателей разных эпох.
Доп. информация: Релиз: Рипер АМ
качество: SATRip
формат: AVI
Видео: 720x400 (1.80:1), 25 fps, DivX Codec 6.8.5/6.9.1 ~1800 kbps avg, 0.25 bit/pixel
Аудио: 48 kHz, MPEG Layer 3, 2 ch, ~192.00 kbps avg

MediaInfo

Формат : AVIФормат/Информация : Audio Video InterleaveРазмер файла : 984 МбайтПродолжительность : 1 ч. 8 м.Общий поток : 2002 Кбит/секБиблиотека кодирования : VirtualDub build 35491/release
ВидеоИдентификатор : 0Формат : MPEG-4 VisualПараметр BVOP формата : 1Параметр QPel формата : НетПараметр GMC формата : Без точки переходаПараметр матрицы формата : Default (H.263)Режим смешивания : Сжатый битовый потокИдентификатор кодека : DX50Идентификатор кодека/Подсказка : DivX 5Продолжительность : 1 ч. 8 м.Битрейт : 1800 Кбит/секШирина : 720 пикселейВысота : 400 пикселейСоотношение сторон : 16:9Частота кадров : 25,000 кадров/секЦветовое пространство : YUVСубдискретизация насыщенности : 4:2:0Битовая глубина : 8 битТип развёртки : ПрогрессивнаяМетод сжатия : С потерямиБит/(Пиксели*Кадры) : 0.250Размер потока : 885 Мбайт (90%)Библиотека кодирования : DivX 6.8.5 (UTC 2009-08-20)
АудиоИдентификатор : 1Формат : MPEG AudioВерсия формата : Version 1Профиль формата : Layer 3Режим : Joint stereoРасширение режима : MS StereoИдентификатор кодека : 55Идентификатор кодека/Подсказка : MP3Продолжительность : 1 ч. 8 м.Вид битрейта : ПостоянныйБитрейт : 192 Кбит/секКаналы : 2 каналаЧастота : 48,0 КГцМетод сжатия : С потерямиРазмер потока : 94,4 Мбайт (10%)Выравнивание : Разделение по промежуткамПродолжительность промежутка : 40 мс. (1,00 видеокадр)Время предзагрузки промежутка : 500 мс.

Скриншоты


Яндекс.Метрика
Рейтинг@Mail.ru