Новогодний фейерверк в Дубае и Лондоне / Dubai, London New Year's Fireworks [2014, видовая документалистика, HDTV 1080i]

 

Создавать темы 15-Фев-2014 09:54

Новогодний фейерверк в Дубае и Лондоне / Dubai, London New Year's Fireworks Год выпуска: 2014
Страна: ОАЭ, Великобритания
Жанр: видовая документалистика
Продолжительность: 00:09:10 + 00:16:22
Перевод: Не требуется
Описание: Не требуется
Тип релиза: HDTV 1080i
Контейнер: TS
Видео: MPEG-4 AVC, 1920x1080 (16:9), 25.000 fps, 7809 Kbps (Dubai), 9743 Kbps (London)
Аудио: 2 ch, 48KHz, Mp2 128 Kbps (Dubai), AC3 192 Kbps (London)

MediaInfo London

C:ЗагрузкиLondon New Year's Eve Fireworks 2014 1080i HDTV DD2.0 H.264-lulz.ts
General #1
ID : 1 (0x1)
Complete name : C:ЗагрузкиLondon New Year's Eve Fireworks 2014 1080i HDTV DD2.0 H.264-lulz.ts
Format : MPEG-TS
File size : 1.11 GiB
Duration : 16mn 22s
Overall bit rate mode : Variable
Overall bit rate : 9 743 Kbps
Video #5400
ID : 5400 (0x1518)
Menu ID : 1 (0x1)
Format : AVC
Format/Info : Advanced Video Codec
Format profile : [email protected]
Format settings, CABAC : Yes
Format settings, ReFrames : 4 frames
Format settings, GOP : M=8, N=24
Codec ID : 27
Duration : 16mn 22s
Bit rate : 9 068 Kbps
Width : 1 920 pixels
Height : 1 080 pixels
Display aspect ratio : 16:9
Frame rate : 25.000 fps
Standard : Component
Color space : YUV
Chroma subsampling : 4:2:0
Bit depth : 8 bits
Scan type : MBAFF
Bits/(Pixel*Frame) : 0.175
Stream size : 1.04 GiB (93%)
Color primaries : BT.709
Transfer characteristics : BT.709
Matrix coefficients : BT.709
Audio #5401
ID : 5401 (0x1519)
Menu ID : 1 (0x1)
Format : AC-3
Format/Info : Audio Coding 3
Mode extension : CM (complete main)
Format settings, Endianness : Big
Codec ID : 6
Duration : 16mn 22s
Bit rate mode : Constant
Bit rate : 192 Kbps
Channel count : 2 channels
Channel positions : Front: L R
Sampling rate : 48.0 KHz
Bit depth : 16 bits
Compression mode : Lossy
Stream size : 22.5 MiB (2%)
Language : English
Text #5404
ID : 5404 (0x151C)
Menu ID : 1 (0x1)
Format : DVB Subtitle
Codec ID : 6
Duration : 16mn 20s
Delay relative to video : 284ms
Language : English

MediaInfo Dubai

C:ЗагрузкиDubai.New.Year's.Fireworks.2014.H264.1080i-aB.ts
General #1
ID : 1 (0x1)
Complete name : C:ЗагрузкиDubai.New.Year's.Fireworks.2014.H264.1080i-aB.ts
Format : MPEG-TS
File size : 548 MiB
Duration : 9mn 10s
Overall bit rate mode : Variable
Overall bit rate : 8 351 Kbps
Video #101
ID : 101 (0x65)
Menu ID : 1 (0x1)
Format : AVC
Format/Info : Advanced Video Codec
Format profile : [email protected]
Format settings, CABAC : Yes
Format settings, ReFrames : 4 frames
Format settings, GOP : M=4, N=24
Codec ID : 27
Duration : 9mn 10s
Bit rate : 7 809 Kbps
Width : 1 920 pixels
Height : 1 080 pixels
Display aspect ratio : 16:9
Frame rate : 25.000 fps
Color space : YUV
Chroma subsampling : 4:2:0
Bit depth : 8 bits
Scan type : Progressive
Bits/(Pixel*Frame) : 0.151
Stream size : 513 MiB (94%)
Color primaries : BT.709
Transfer characteristics : BT.709
Matrix coefficients : BT.709
Audio #256
ID : 256 (0x100)
Menu ID : 1 (0x1)
Format : MPEG Audio
Format version : Version 1
Format profile : Layer 2
Codec ID : 3
Duration : 9mn 10s
Bit rate mode : Constant
Bit rate : 128 Kbps
Channel count : 2 channels
Sampling rate : 48.0 KHz
Compression mode : Lossy
Delay relative to video : -40ms
Stream size : 8.41 MiB (2%)
Language : English

Скриншоты

Яндекс.Метрика
Рейтинг@Mail.ru