Олимпийские игры 2014. Фигурное катание. Спортивные пары. Произвольная программа (2014.02.12) HDTVRip [H.264/720p]

 

Создавать темы 13-Фев-2014 21:06

Олимпийские игры 2014. Фигурное катание. Спортивные пары. Произвольная программа (2014.02.12) HDTVRip [H.264/720p]- Телекомпания: НТВ+ Спорт HD
Год выпуска: 2014.02.12
Жанр: Спорт, Видовой
Комментаторы: Т.А. Тарасова, В. Соловьёв
Описание:
Парное фигурное катание — вид спорта, разновидность фигурного катания. Спортсмены, мужчина и женщина, катаются в унисон, исполняя движения в такой гармонии друг с другом, что создаётся впечатление настоящего парного катания, а не независимого катания двух одиночников.
Элементы парного катания
Три элемента — синхронное вращение, синхронный прыжок и дорожка шагов — не что иное, как синхронное исполнение аналогичных одиночных элементов. Спираль и совместное вращение партнёры выполняют вместе, как единое целое. Элементы «поддержка», «выброс», «подкрутка» и «тодес» вообще не имеют аналогов в одиночном катании. Все элементы должны быть связаны различными соединительными шагами и другими движениями парного катания, с разнообразными позициями и хватами, при полном использовании поверхности катка.
Продолжительность: 03:17:06
Качество видео: HDTVRip
Видеокодек: AVC
Битрейт видео: ~4434 Kb/s
Размер кадра: 1280x720 (16:9)
Аудиокодек: A_AC3 2.0
Битрейт аудио: 192 kb/s

Запрещённые элементы парного катания:

С одной стороны, парное катание — очень травмоопасный вид спорта. Нередки падения с поддержек и выбросов, травмы от конька партнёра. С другой — «трюкачество» нередко использовалось, чтобы скрыть откровенно слабое катание одного из партнёров. Поэтому список запрещённых приёмов широк:
* сальто;
* прыжки навстречу партнёру;
* каскады из 4 и более прыжков;
* поддержки за запрещённые части тела;
* поддержки с поворотом более 3,5 оборотов;
* вращательные движения, когда партнёр вращает партнёршу в воздухе вокруг себя, держа её за руку или за ногу;
* крутящие или вращательные движения, в которых партнёрша переворачивается, и её опорная нога отрывается ото льда;
* вращательные движения с хватом одного из партнёров за ногу, руку или шею другого партнёра;
* раскрутки за руку или ногу, в которых партнёрша теряет контакт со льдом;
* перевороты партнёрши в вертикальной плоскости;
* лежание на льду и длительное и/или стационарное нахождение на льду обоих колен спортсмена одновременно в любом месте программы;
* злоупотребление поддержками, когда партнёрша значительную долю программы проводит на руках у мужчины, а не на коньках;
* использование декораций, посторонних предметов.
За исполнение каждого из запрещенных элементов / движений, включенных в программу, должно последовать снижение 2,0 очка.

MediaInfo:

General
Unique ID : 239773580130961320561042805396481854264 (0xB462B63785E90D0195AE7D224EE94B38)
Complete name : F:\Multimedia\Video\Sochi\XXII Зимние Олимпийские игры. Сочи. 12.02.2014. Фигурное катание. Спортивные пары. Произвольная программа. HDTVRip. 720p.mkv
Format : Matroska
Format version : Version 4 / Version 2
File size : 6.50 GiB
Duration : 3h 17mn
Overall bit rate : 4 720 Kbps
Encoded date : UTC 2014-02-12 19:22:03
Writing application : mkvmerge v6.4.1 ('Omega Point') built on Sep 16 2013 22:05:10
Writing library : libebml v1.3.0 + libmatroska v1.4.1
Video
ID : 1
Format : AVC
Format/Info : Advanced Video Codec
Format profile : [url=mailto:[email protected]][email protected][/url]
Format settings, CABAC : No
Format settings, ReFrames : 2 frames
Format settings, GOP : M=1, N=15
Codec ID : V_MPEG4/ISO/AVC
Duration : 3h 17mn
Bit rate : 4 434 Kbps
Width : 1 280 pixels
Height : 720 pixels
Display aspect ratio : 16:9
Frame rate mode : Variable
Frame rate : 50.000 fps
Color space : YUV
Chroma subsampling : 4:2:0
Bit depth : 8 bits
Scan type : Progressive
Bits/(Pixel*Frame) : 0.096
Stream size : 6.10 GiB (94%)
Audio
ID : 2
Format : AC-3
Format/Info : Audio Coding 3
Mode extension : CM (complete main)
Codec ID : A_AC3
Duration : 3h 17mn
Bit rate mode : Constant
Bit rate : 192 Kbps
Channel(s) : 2 channels
Channel positions : Front: L R
Sampling rate : 48.0 KHz
Bit depth : 16 bits
Compression mode : Lossy
Stream size : 271 MiB (4%)

Участники:

Результаты:

Скриншоты:-Время раздачи: 24/7
Яндекс.Метрика
Рейтинг@Mail.ru