Секретные территории. Нити Вселенной / [Эфир от 31.01.2014] (Александр Милославов) [2014 г., документальный, SATRip]

 

Создавать темы 11-Фев-2014 22:02

-Секретные территории. Нити Вселенной-- Производство: Россия
Жанр: документальный
Год выпуска: 2014 г.
Продолжительность: 00:47:54
Перевод: Не требуется
Оригинальный аудиопоток: русский
Режиссер: Александр Милославов-Описание: Секретные территории это цикл документальных расследований (из проекта РЕАЛЬНОСТЬ) о наиболее драматических событиях современности и её знаковых фигурах: деятельность спецслужб, тайные страницы истории, уникальные архивы, новые разработки, фантастические явления, которым нельзя найти объяснение (аномальные зоны, вещие сны, сверхъестественные способности человека и НЛО)… Сюжеты большинства программ — это сенсация или переворот. Своими секретами с авторами фильмов делятся политики, сотрудники спецслужб, бизнесмены и прочие участники событий. Объект программ — парадоксальные события, оставившие след в нашей истории, а также тайные пружины, которые подчас приводят в действие механизм нашей жизни.
В выпуске:
Правда ли, что расширять границы времени можно при помощи специальных машин, одну из которых в свое время изобрел астрофизик Николай Козырев? Правда ли, что последователи учёного разрабатывают новые модели машин времени? Способно ли открытие о безграничности времени изменить наш мир?-Качество видео: SATRip
Контейнер: AVI
Видео кодек: XviD
Аудио кодек: MP3
Видео: 720x400 (1.80:1), 25 fps, XviD MPEG-4 ~1494 kbps avg, 0.21 bit/pixel
Аудио: 48 kHz, MPEG Layer 3, 2 ch, ~128.00 kbps avg
Cубтитры: отсутствуют

Media Info

General
Complete name : D:\Sekretnye.territorii.2014.01.31.SATRip.avi
Format : AVI
Format/Info : Audio Video Interleave
File size : 559 MiB
Duration : 47mn 54s
Overall bit rate : 1 633 Kbps
Writing application : VirtualDubMod 1.5.10.2 (build 2540/release)
Writing library : VirtualDubMod build 2540/release
Video
ID : 0
Format : MPEG-4 Visual
Format profile : Advanced [email protected]
Format settings, BVOP : 2
Format settings, QPel : No
Format settings, GMC : No warppoints
Format settings, Matrix : Default (MPEG)
Muxing mode : Packed bitstream
Codec ID : XVID
Codec ID/Hint : XviD
Duration : 47mn 54s
Bit rate : 1 495 Kbps
Width : 720 pixels
Height : 400 pixels
Display aspect ratio : 16:9
Frame rate : 25.000 fps
Color space : YUV
Chroma subsampling : 4:2:0
Bit depth : 8 bits
Scan type : Progressive
Compression mode : Lossy
Bits/(Pixel*Frame) : 0.208
Stream size : 512 MiB (92%)
Writing library : XviD 64
Audio
ID : 1
Format : MPEG Audio
Format version : Version 1
Format profile : Layer 3
Mode : Joint stereo
Codec ID : 55
Codec ID/Hint : MP3
Duration : 47mn 54s
Bit rate mode : Constant
Bit rate : 128 Kbps
Channel count : 2 channels
Sampling rate : 48.0 KHz
Compression mode : Lossy
Stream size : 43.9 MiB (8%)
Alignment : Aligned on interleaves
Interleave, duration : 40 ms (1.00 video frame)
Interleave, preload duration : 504 ms

Скриншот c названием фильма

Скриншоты

Яндекс.Метрика
Рейтинг@Mail.ru