Странное дело. Демоны моря / (Вадим Артеменко) [2012 г., Документальный, SATRip]

 

Создавать темы 11-Фев-2014 21:47

-Странное дело. Демоны моря-- Производство: Россия
Жанр: Документальный
Год выпуска: 2012 г.
Продолжительность: 00:47:57
Перевод: Не требуется
Оригинальный аудиопоток: русский
Режиссер: Вадим Артеменко-Описание: История мореплавания - бесконечная череда кораблекрушений, которые естественны для войн и не поддаются никакому объяснению в мирное время...-Качество видео: SATRip
Контейнер: AVI
Видео кодек: DivX
Аудио кодек: MP3
Видео: 704x432 (1.63:1), 25 fps, DivX Codec 6.8.5/6.9.1 ~1579 kbps avg, 0.21 bit/pixel
Аудио: 48 kHz, MPEG Layer 3, 2 ch, ~128.00 kbps avg
Cубтитры: отсутствуют

Media Info

General
Complete name : D:\Demony_morja-29.04.2012.avi
Format : AVI
Format/Info : Audio Video Interleave
File size : 589 MiB
Duration : 47mn 56s
Overall bit rate : 1 717 Kbps
Writing library : VirtualDub-MPEG2 build 24600/release
Video
ID : 0
Format : MPEG-4 Visual
Format settings, BVOP : 1
Format settings, QPel : No
Format settings, GMC : No warppoints
Format settings, Matrix : Default (H.263)
Muxing mode : Packed bitstream
Codec ID : DX50
Codec ID/Hint : DivX 5
Duration : 47mn 56s
Bit rate : 1 580 Kbps
Width : 704 pixels
Height : 432 pixels
Display aspect ratio : 16:10
Frame rate : 25.000 fps
Color space : YUV
Chroma subsampling : 4:2:0
Bit depth : 8 bits
Scan type : Progressive
Compression mode : Lossy
Bits/(Pixel*Frame) : 0.208
Stream size : 542 MiB (92%)
Writing library : DivX 6.8.5 (UTC 2009-08-20)
Audio
ID : 1
Format : MPEG Audio
Format version : Version 1
Format profile : Layer 3
Mode : Joint stereo
Mode extension : MS Stereo
Codec ID : 55
Codec ID/Hint : MP3
Duration : 47mn 56s
Bit rate mode : Constant
Bit rate : 128 Kbps
Channel count : 2 channels
Sampling rate : 48.0 KHz
Compression mode : Lossy
Stream size : 43.9 MiB (7%)
Alignment : Split accross interleaves
Interleave, duration : 40 ms (1.00 video frame)
Interleave, preload duration : 500 ms

Скриншот c названием фильма

Скриншоты

Яндекс.Метрика
Рейтинг@Mail.ru