[ Сегодня на трекере фрилич! Идет свободное скачивание без начисления Download ]

Облачно... 2: Месть ГМО / Cloudy with a Chance of Meatballs 2 (Коуди Камерон, Крис Пирн / Cody Cameron, Kris Pearn) [2013 г., мультфильм, фантастика, фэнтези, комедия, семейный, BDRip-AVC] Dub + Original (Eng) + Sub (Rus, Eng) [Jolly Roger]

 

Создавать темы 07-Фев-2014 19:02

-Облачно... 2: Месть ГМО / Cloudy with a Chance of Meatballs 2- Год выпуска: 2013 г.
Производство: США
Жанр: мультфильм, фантастика, фэнтези, комедия, семейный
Продолжительность: 01:34:50
Перевод: Профессиональный (полное дублирование)
Оригинальный аудиопоток: английский
Режиссер: Коуди Камерон, Крис Пирн / Cody Cameron, Kris Pearn
В ролях: Билл Хейдер, Анна Фэрис, Джеймс Каан, Уилл Форте, Энди Сэмберг, Бенджамин Брэтт, Нил Патрик Харрис, Терри Крюс, Кристен Шаал, Коуди Камерон
Описание: Все жители острова Поплавок покинули родной дом после событий предыдущего мультфильма. Главный герой Флинт Локвуд теперь работает в компании The Live Corp на своего кумира Честера. Но ему придется оставить свой пост когда он узнает, что его печально-известная машина все ещё работает и производит на свет опасных гибридов. Флинту предстоит ещё раз спасти мир и не дать коварной машине распространить громадную еду по всему миру. Качество видео: BDRip-AVC
Контейнер: MKV
Видео кодек: H.264
Аудио кодек: AC3
Видео: MPEG4 Video (H264) 1072x448 23.976fps 1543 Kbps
Аудио: Dolby AC3 48000Hz 6ch 448 kbps / Русский
Аудио: Dolby AC3 48000Hz 2ch 192 kbps / Английский
Субтитры: русские, английские (отключаемые)

Media Info / x264

x264

x264 [info]: using SAR=1/1
x264 [info]: using cpu capabilities: MMX2 SSE2Fast SSSE3 Cache64 SlowShuffle
x264 [info]: profile High, level 4.1
x264 [info]: frame I:1307 Avg QP:18.00 size: 85715
x264 [info]: frame P:35336 Avg QP:21.80 size: 16487
x264 [info]: frame B:99773 Avg QP:26.49 size: 4037
x264 [info]: consecutive B-frames: 4.6% 4.6% 7.1% 42.2% 13.9% 17.9% 3.5% 6.1%
x264 [info]: mb I I16..4: 8.0% 58.1% 33.9%
x264 [info]: mb P I16..4: 2.1% 8.2% 2.1% P16..4: 38.6% 12.1% 13.4% 1.0% 0.4% skip:22.1%
x264 [info]: mb B I16..4: 0.2% 1.1% 0.3% B16..8: 27.0% 5.6% 2.1% direct: 2.3% skip:61.4% L0:41.4% L1:49.0% BI: 9.6%
x264 [info]: 8x8 transform intra:65.0% inter:59.6%
x264 [info]: direct mvs spatial:91.3% temporal:8.7%
x264 [info]: coded y,uvDC,uvAC intra: 74.6% 85.8% 62.6% inter: 11.7% 15.1% 5.7%
x264 [info]: i16 v,h,dc,p: 22% 23% 6% 49%
x264 [info]: i8 v,h,dc,ddl,ddr,vr,hd,vl,hu: 10% 11% 4% 9% 13% 13% 14% 12% 14%
x264 [info]: i4 v,h,dc,ddl,ddr,vr,hd,vl,hu: 12% 10% 4% 9% 14% 13% 14% 11% 14%
x264 [info]: i8c dc,h,v,p: 36% 24% 18% 21%
x264 [info]: Weighted P-Frames: Y:3.1% UV:2.0%
x264 [info]: ref P L0: 58.0% 12.8% 12.8% 6.5% 4.0% 5.3% 0.7% 0.0%
x264 [info]: ref B L0: 81.1% 9.0% 6.4% 2.2% 1.3%
x264 [info]: ref B L1: 92.2% 7.8%
x264 [info]: kb/s:1542.92
x264 [total]: encoded 136416 frames, 3.68 fps, 1542.92 kb/s
General
Unique ID : 238183119738705281133716891270191239248 (0xB330667720855F169886293E23E7D050)
Complete name : G:\Oblachno.Mest.GMO.2013.H.264.BDRip-AVC.JRG.mkv
Format : Matroska
Format version : Version 4 / Version 2
File size : 1.45 GiB
Duration : 1h 34mn
Overall bit rate : 2 185 Kbps
Movie name : The Jolly Roger Release Group by http://Pirat.CA
Encoded date : UTC 2014-02-07 15:52:59
Writing application : mkvmerge v6.6.0 ('The Edge Of The In Between') built on Dec 1 2013 17:55:00
Writing library : libebml v1.3.0 + libmatroska v1.4.1
Video
ID : 1
Format : AVC
Format/Info : Advanced Video Codec
Format profile : [email protected]
Format settings, CABAC : Yes
Format settings, ReFrames : 6 frames
Codec ID : V_MPEG4/ISO/AVC
Duration : 1h 34mn
Bit rate : 1 543 Kbps
Width : 1 072 pixels
Height : 448 pixels
Display aspect ratio : 2.40:1
Frame rate mode : Constant
Frame rate : 23.976 fps
Color space : YUV
Chroma subsampling : 4:2:0
Bit depth : 8 bits
Scan type : Progressive
Bits/(Pixel*Frame) : 0.134
Stream size : 1 019 MiB (69%)
Writing library : x264 core 130 r2273 b3065e6
Encoding settings : cabac=1 / ref=6 / deblock=1:0:0 / analyse=0x3:0x133 / me=umh / subme=9 / psy=1 / psy_rd=1.00:0.00 / mixed_ref=1 / me_range=32 / chroma_me=1 / trellis=2 / 8x8dct=1 / cqm=0 / deadzone=21,11 / fast_pskip=0 / chroma_qp_offset=-2 / threads=3 / lookahead_threads=1 / sliced_threads=0 / nr=0 / decimate=1 / interlaced=0 / bluray_compat=0 / constrained_intra=0 / bframes=7 / b_pyramid=2 / b_adapt=2 / b_bias=0 / direct=3 / weightb=1 / open_gop=0 / weightp=2 / keyint=250 / keyint_min=23 / scenecut=40 / intra_refresh=0 / rc_lookahead=50 / rc=2pass / mbtree=1 / bitrate=1543 / ratetol=1.0 / qcomp=0.60 / qpmin=0 / qpmax=69 / qpstep=4 / cplxblur=20.0 / qblur=0.5 / ip_ratio=1.40 / aq=1:1.00
Default : Yes
Forced : No
Audio #1
ID : 2
Format : AC-3
Format/Info : Audio Coding 3
Mode extension : CM (complete main)
Format settings, Endianness : Big
Codec ID : A_AC3
Duration : 1h 34mn
Bit rate mode : Constant
Bit rate : 448 Kbps
Channel(s) : 6 channels
Channel positions : Front: L C R, Side: L R, LFE
Sampling rate : 48.0 KHz
Bit depth : 16 bits
Compression mode : Lossy
Stream size : 304 MiB (21%)
Language : Russian
Default : Yes
Forced : No
Audio #2
ID : 3
Format : AC-3
Format/Info : Audio Coding 3
Mode extension : CM (complete main)
Format settings, Endianness : Big
Codec ID : A_AC3
Duration : 1h 34mn
Bit rate mode : Constant
Bit rate : 192 Kbps
Channel(s) : 2 channels
Channel positions : Front: L R
Sampling rate : 48.0 KHz
Bit depth : 16 bits
Compression mode : Lossy
Stream size : 130 MiB (9%)
Language : English
Default : No
Forced : No
Text #1
ID : 4
Format : UTF-8
Codec ID : S_TEXT/UTF8
Codec ID/Info : UTF-8 Plain Text
Language : Russian
Default : No
Forced : No
Text #2
ID : 5
Format : UTF-8
Codec ID : S_TEXT/UTF8
Codec ID/Info : UTF-8 Plain Text
Language : English
Default : No
Forced : No

Скриншоты

Яндекс.Метрика
Рейтинг@Mail.ru