[ Сегодня на трекере фрилич! Идет свободное скачивание без начисления Download ]

Русалочка 2: Возвращение в море / The Little Mermaid II: Return to the Sea (Джим Каммеруд, Брайан Смит) [2000, Мультфильм, полнометражный, BDRip-AVC] от MediaClub | D, A

 

Создавать темы 08-Окт-2013 08:29

Информация о фильме
Название: Русалочка 2: Возвращение в море
Оригинальное название: The Little Mermaid II: Return to the Sea
Год выпуска: 2000
Жанр: Мультфильм, полнометражный
Режиссер: Джим Каммеруд, Брайан Смит
Описание: Главная героиня новой ленты Мелоди - дочь русалочки Ариэль и принца Эрика. Как ни пытались родители уберечь дочь от неприятностей, которые таит в себе море и его обитатели, у них ничего не вышло. Мелоди сбежала в море и встретилась с Морганой, сестрой злой морской ведьмы Урсулы. Но маленькая Мелоди любила Атлантику всем сердцем, и ее любовь помогла ей преодолеть опасности и обрести новых друзей…

Страна: США, Канада, Австралия
Студия: Walt Disney Animation Australia, Walt Disney Pictures, Walt Disney Animation Canada
Продолжительность: 01:15:12
Перевод: Дублированный, авторский одноголосый
Файл
Качество: BDRip (AVC)
Видео: MPEG-4 AVC, 1603 Кбит/с, 1024x576, 23.976 кадр/с
Аудио #1: Русский (AC3, 2 ch, 320 Кбит/с) / Дублированный
Аудио #2: Русский (AC3, 6 ch, 384 Кбит/с) / Авторский одноголосый (Ю. Живов)
Аудио #3: Английский (AC3, 6 ch, 448 Кбит/с)
Субтитры: Русские, английские
Семпл

Скришоты


MI

Общее
Уникальный идентификатор : 191476170074481253623783010651518291723 (0x900CF80DA6BD1C2E817638F86C944F0B)
Полное имя : D:Mои раздачиRusalochka-2.2000.BDRip.(AVC)-MediaClub.mkv
Формат : Matroska
Версия формата : Version 4 / Version 2
Размер файла : 1,45 Гбайт
Продолжительность : 1 ч. 15 м.
Общий поток : 2758 Кбит/сек
Название фильма : -=MediaClub=-
Дата кодирования : UTC 2013-10-06 07:28:59
Программа кодирования : mkvmerge v6.1.0 ('Old Devil') built on Mar 4 2013 09:10:42
Библиотека кодирования : libebml v1.3.0 + libmatroska v1.4.0
Видео
Идентификатор : 1
Формат : AVC
Формат/Информация : Advanced Video Codec
Профиль формата : [email protected]
Параметр CABAC формата : Да
Параметр ReFrames формата : 9 кадров
Идентификатор кодека : V_MPEG4/ISO/AVC
Продолжительность : 1 ч. 15 м.
Битрейт : 1603 Кбит/сек
Ширина : 1024 пикселя
Высота : 576 пикселей
Соотношение сторон : 16:9
Режим частоты кадров : Постоянный
Частота кадров : 23,976 кадра/сек
Цветовое пространство : YUV
Субдискретизация насыщенности : 4:2:0
Битовая глубина : 8 бит
Тип развёртки : Прогрессивная
Бит/(Пиксели*Кадры) : 0.113
Размер потока : 834 Мбайт (56%)
Заголовок : -=MediaClub=-
Библиотека кодирования : x264 core 130 r2273 b3065e6
Настройки программы : cabac=1 / ref=9 / deblock=1:-3:-3 / analyse=0x3:0x133 / me=umh / subme=11 / psy=1 / psy_rd=1.00:0.20 / mixed_ref=1 / me_range=48 / chroma_me=1 / trellis=2 / 8x8dct=1 / cqm=0 / deadzone=21,11 / fast_pskip=0 / chroma_qp_offset=-3 / threads=12 / lookahead_threads=3 / sliced_threads=0 / nr=0 / decimate=0 / interlaced=0 / bluray_compat=0 / constrained_intra=0 / bframes=10 / b_pyramid=2 / b_adapt=2 / b_bias=0 / direct=3 / weightb=1 / open_gop=0 / weightp=2 / keyint=240 / keyint_min=23 / scenecut=40 / intra_refresh=0 / rc_lookahead=60 / rc=2pass / mbtree=1 / bitrate=1603 / ratetol=1.0 / qcomp=0.60 / qpmin=0 / qpmax=69 / qpstep=4 / cplxblur=20.0 / qblur=0.5 / ip_ratio=1.40 / aq=1:0.60
Default : Да
Forced : Нет
Аудио #1
Идентификатор : 2
Формат : AC-3
Формат/Информация : Audio Coding 3
Профиль формата : Dolby Digital
Расширение режима : CM (complete main)
Параметр Endianness формата : Big
Идентификатор кодека : A_AC3
Продолжительность : 1 ч. 15 м.
Вид битрейта : Постоянный
Битрейт : 320 Кбит/сек
Каналы : 2 канала
Расположение каналов : Front: L R
Частота : 48,0 КГц
Битовая глубина : 16 бит
Метод сжатия : С потерями
Размер потока : 172 Мбайт (12%)
Заголовок : Дубляж
Язык : Russian
Default : Да
Forced : Да
Аудио #2
Идентификатор : 3
Формат : AC-3
Формат/Информация : Audio Coding 3
Расширение режима : CM (complete main)
Параметр Endianness формата : Big
Идентификатор кодека : A_AC3
Продолжительность : 1 ч. 15 м.
Вид битрейта : Постоянный
Битрейт : 384 Кбит/сек
Каналы : 6 каналов
Расположение каналов : Front: L C R, Side: L R, LFE
Частота : 48,0 КГц
Битовая глубина : 16 бит
Метод сжатия : С потерями
Размер потока : 207 Мбайт (14%)
Заголовок : Живов
Язык : Russian
Default : Нет
Forced : Нет
Аудио #3
Идентификатор : 4
Формат : AC-3
Формат/Информация : Audio Coding 3
Расширение режима : CM (complete main)
Параметр Endianness формата : Big
Идентификатор кодека : A_AC3
Продолжительность : 1 ч. 15 м.
Вид битрейта : Постоянный
Битрейт : 448 Кбит/сек
Каналы : 6 каналов
Расположение каналов : Front: L C R, Side: L R, LFE
Частота : 48,0 КГц
Битовая глубина : 16 бит
Метод сжатия : С потерями
Размер потока : 241 Мбайт (16%)
Язык : English
Default : Нет
Forced : Нет
Текст #1
Идентификатор : 5
Формат : UTF-8
Идентификатор кодека : S_TEXT/UTF8
Идентификатор кодека/Информация : UTF-8 Plain Text
Язык : Russian
Default : Нет
Forced : Нет
Текст #2
Идентификатор : 6
Формат : UTF-8
Идентификатор кодека : S_TEXT/UTF8
Идентификатор кодека/Информация : UTF-8 Plain Text
Язык : English
Default : Нет
Forced : Нет
Меню
00:00:00.000 : en:Chapter 01
00:04:00.323 : en:Chapter 02
00:04:33.273 : en:Chapter 03
00:09:56.345 : en:Chapter 04
00:16:45.421 : en:Chapter 05
00:20:52.209 : en:Chapter 06
00:23:55.225 : en:Chapter 07
00:25:54.427 : en:Chapter 08
00:28:19.698 : en:Chapter 09
00:32:50.510 : en:Chapter 10
00:35:40.680 : en:Chapter 11
00:37:27.245 : en:Chapter 12
00:44:28.123 : en:Chapter 13
00:46:24.907 : en:Chapter 14
00:52:59.426 : en:Chapter 15
01:00:07.562 : en:Chapter 16
01:02:18.192 : en:Chapter 17
01:05:49.695 : en:Chapter 18
01:08:58.717 : en:Chapter 19

_________________
Подпись отключена за нарушение правил форума
Яндекс.Метрика
Рейтинг@Mail.ru