Скуби-Ду и страшное Пугало / Scooby-Doo and the Scarecrow (Майкл Гоген / Michael Goguen) [2013, Мультипликация, DVDRip] MVO

 

Создавать темы 26-Янв-2014 10:36

Скуби-Ду и страшное Пугало / Scooby-Doo and the Scarecrow
Страна: США
Жанр: Мультипликация
Продолжительность: 00:21:43
Год выпуска: 2013
Перевод: Профессиональный (многоголосый закадровый)
Русские субтитры: нет-Режиссёр: Майкл Гоген / Michael Goguen
Роли озвучивали: Минди Кон, Грей Делисле, Мэтью Лиллард, Фрэнк Уэлкер-Описание: В новой 22-х минутной серии "Скуби-Дy и страшное Пугало", Скуби и его команда охотников за привидениями приезжают на тихую ферму. Жители готовятся и празднику Хэллоуин, но не все в деревне тихо и спокойно. На местном кукурузном поле появляется пугало, которое оживила ведьма! Смогут ли наши вечноголодные герои оторваться от накрытого стола, чтобы решить зту загадку?-Качество: DVDRip
Формат: AVI
Видео: MPEG4, XviD, 720x400 (16:9), 25.000 fps, 1 471 Kbps (0.204 bit/pixel)
Аудио: AC-3, 48.0 KHz, 2 ch, 192 Kbps, CBR
Субтитры: отсутствуют
Семпл: Забираем тут

Подробные технические данные

ОбщееПолное имя : F:\Scooby-Doo and the Scarecrow.aviФормат : AVIФормат/Информация : Audio Video InterleaveРазмер файла : 260 МбайтПродолжительность : 21 м.Общий поток : 1673 Кбит/секПрограмма кодирования : VirtualDubMod 1.5.10.2 (build 2542/release)Библиотека кодирования : VirtualDubMod build 2542/release
ВидеоИдентификатор : 0Формат : MPEG-4 VisualПрофиль формата : Advanced [email protected] BVOP формата : 2Параметр QPel формата : НетПараметр GMC формата : Без точки переходаПараметр матрицы формата : Default (H.263)Идентификатор кодека : XVIDИдентификатор кодека/Подсказка : XviDПродолжительность : 21 м.Битрейт : 1471 Кбит/секШирина : 720 пикселейВысота : 400 пикселейСоотношение сторон : 16:9Частота кадров : 25,000 кадров/секЦветовое пространство : YUVСубдискретизация насыщенности : 4:2:0Битовая глубина : 8 битТип развёртки : ПрогрессивнаяМетод сжатия : С потерямиБит/(Пиксели*Кадры) : 0.204Размер потока : 228 Мбайт (88%)Библиотека кодирования : XviD 1.2.1 (UTC 2008-12-04)
АудиоИдентификатор : 1Формат : AC-3Формат/Информация : Audio Coding 3Расширение режима : CM (complete main)Параметр Endianness формата : BigИдентификатор кодека : 2000Продолжительность : 21 м.Вид битрейта : ПостоянныйБитрейт : 192 Кбит/секКаналы : 2 каналаРасположение каналов : Front: L RЧастота : 48,0 КГцБитовая глубина : 16 битМетод сжатия : С потерямиРазмер потока : 29,8 Мбайт (11%)Выравнивание : Разделение по промежуткамПродолжительность промежутка : 40 мс. (1,00 видеокадр)Время предзагрузки промежутка : 500 мс.

Скриншоты

Яндекс.Метрика
Рейтинг@Mail.ru