Человек с бульвара Капуцинов (Алла Сурикова) [1987, Комедия, мелодрама, мюзикл, вестерн, BDRip, 1080p]

 

Создавать темы 23-Июн-2017 19:27

-Человек с бульвара Капуцинов Отреставрированное Издание в Формате Высокой Четкости- Производство: СССР
Жанр: Комедия, мелодрама, мюзикл, вестерн
Режиссер: Алла Сурикова
Актеры: Андрей Миронов, Александра Яковлева, Николай Караченцов, Олег Табаков, Леонид Ярмольник, Михаил Боярский, Спартак Мишулин, Наталья Крачковская, Михаил Светин, Игорь Кваша, Лев Дуров, Галина Польских, Наталья Фатеева, Альберт Филозов, Борислав Брондуков, Олег Анофриев, Семен Фарада, Александр Иншаков, Н. Астапов, Мария Булатова, Юрий Думчев, Анатолий Калмыков, Михаил Херхеулидзе, Валерий Лысенков, А. Малышев, Юрий Медведев, Александр Павлов, Александр Сластин, Николай Сысоев, Антон Табаков, Игорь Воробьев, Дмитрий Золотухин, Юрий Шумило, Александр Горбачев, Евгений Кулешов, Борис Иванов, Николай Деберо, Станислав Микульский
Описание:
В одном из ковбойских городков Дикого Запада с его традиционной стрельбой, сквернословием и мордобоем появляется тихий миссионер кино мистер Фёст. Неведомое прежде ковбоям «синема» до неузнаваемости меняет уклад их жизни, нравы и привычки.
Правда, позднее благородный мистер Фёст будет изгнан недоброжелателями. Но обитатели городка уже никогда не смогут забыть, что на свете есть великое искусство — КИНО…
Последняя роль Андрея Миронова. Фильм покадрово оцифрован с исходного негатива и реставрирован под формат высокой четкости.


Возраст: 16+ зрителям, достигшим 16 лет
Релиз от: HDClub
Продолжительность: 01:37:47
Качество: BDRip
Перевод: Не требуется
Вид субтитров: Вшитые, отключаемые
Язык субтитров: Русский
Видео: AVC/H.264, 1804x1080, (1.670:1), ~16,1 Мбит/сек
Аудио: DTS, 6 ch, 1510.00 kbps

МИ

Общее
Уникальный идентификатор                 : 209058248683990688140163620620177260799 (0x9D472774CFF69BF49000D2D1BE4840FF)
Полное имя                               : D:\Chelovek.s.bulvara.Kaputsinov.1987.1080p.BDRip.mkv
Формат                                   : Matroska
Версия формата                           : Version 2
Размер файла                             : 12,3 Гбайт
Продолжительность                        : 1 ч. 37 м.
Режим общего битрейта                    : Переменный
Общий поток                              : 18,0 Мбит/сек
Название фильма                          : Chelovek s bulvara Kaputsinov (1987)
Дата кодирования                         : UTC 2015-04-19 15:15:41
Программа кодирования                    : mkvmerge v5.8.0 ('No Sleep / Pillow') built on Sep  2 2012 15:37:04
Библиотека кодирования                   : libebml v1.2.3 + libmatroska v1.3.0
Видео
Идентификатор                            : 1
Формат                                   : AVC
Формат/Информация                        : Advanced Video Codec
Профиль формата                          : [url=mailto:[email protected]][email protected][/url]
Параметр CABAC формата                   : Да
Параметр ReFrames формата                : 4 кадра
Идентификатор кодека                     : V_MPEG4/ISO/AVC
Продолжительность                        : 1 ч. 37 м.
Вид битрейта                             : Переменный
Битрейт                                  : 16,1 Мбит/сек
Максимальный битрейт                     : 40,0 Мбит/сек
Ширина                                   : 1804 пикселя
Высота                                   : 1080 пикселей
Соотношение сторон                       : 1,670
Режим частоты кадров                     : Постоянный
Частота кадров                           : 23,976 кадра/сек
Цветовое пространство                    : YUV
Субдискретизация насыщенности            : 4:2:0
Битовая глубина                          : 8 бит
Тип развёртки                            : Прогрессивная
Бит/(Пиксели*Кадры)                      : 0.346
Размер потока                            : 11,0 Гбайт (90%)
Заголовок                                : Chelovek s bulvara Kaputsinov (1987)
Язык                                     : Russian
Default                                  : Нет
Forced                                   : Нет
Аудио
Идентификатор                            : 2
Формат                                   : DTS
Формат/Информация                        : Digital Theater Systems
Режим                                    : 16
Параметр Endianness формата              : Big
Идентификатор кодека                     : A_DTS
Продолжительность                        : 1 ч. 37 м.
Вид битрейта                             : Постоянный
Битрейт                                  : 1509 Кбит/сек
Каналы                                   : 6 каналов
Расположение каналов                     : Front: L C R, Side: L R, LFE
Частота                                  : 48,0 КГц
Битовая глубина                          : 16 бит
Метод сжатия                             : С потерями
Размер потока                            : 1,03 Гбайт (8%)
Заголовок                                : DTS 5.1 (48 kHz / 1917 kbps / 16-bit)
Язык                                     : Russian
Default                                  : Нет
Forced                                   : Нет
Текст
Идентификатор                            : 3
Формат                                   : UTF-8
Идентификатор кодека                     : S_TEXT/UTF8
Идентификатор кодека/Информация          : UTF-8 Plain Text
Заголовок                                : Full
Язык                                     : Russian
Default                                  : Нет
Forced                                   : Нет
Меню
00:00:00.000                             : en:Chapter 01
00:07:27.613                             : en:Chapter 02
00:13:55.876                             : en:Chapter 03
00:21:33.583                             : en:Chapter 04
00:32:58.017                             : en:Chapter 05
00:40:14.995                             : en:Chapter 06
00:48:34.661                             : en:Chapter 07
00:53:06.641                             : en:Chapter 08
01:04:16.269                             : en:Chapter 09
01:12:14.079                             : en:Chapter 10
01:19:40.859                             : en:Chapter 11
01:27:29.452                             : en:Chapter 12

Знаете ли вы, что...

Последняя роль Андрея Миронова. Актер скончался вскоре после съемок во время гастролей театра «Сатиры» в Риге. Премьеру в Москве он так и не увидел, но Миронов успел посмотреть фильм в Ленинграде на неофициальном показе.
Американский городок Санта-Королина с банком, аптекой и пустыней - это большие цветные декорации. Картонный город чуть было не унесло шквальным ветром, после чего каскадеры вкопали укрепительные столбы. После съемок киногруппа обращалась в Госкино с просьбой не рушить картонный город, но декорации сожгли.
Костюмы, ковбойские шляпы были сшиты на «Мосфильме». Орлиные перья для вождя индейцев привезли из Крыма - как шутили, ощипали орлов. В одном эпизоде герой Олега Табакова стрижет эти «знаки отличия» с головы вождя. Ножницами остричь крепкие орлиные перья у Табакова в один мах не получилось, поэтому перья подрезали.
Потасовки между индейцами и ковбоями снимали так: сначала каскадеры одевались краснокожими и выполняли трюки, а потом - ковбоями. Режиссер переживала, что в кадре будет видно, что один и тот же каскадер лупит самого себя, но гример постарался - зритель ничего не заподозрил.
Бесстрашную жену вождя индейцев - Наталью Фатееву - в ходе одного трюка подменяли аж четверо каскадеров: разгонялась актриса сама, на стену взбегала дублерша, дальше по крыше бежал в женском платье один каскадер, второй прыгал, а заканчивал трюк третий.
В сцене, где салунные девицы с криком «Хотим фильму!» несут на руках мистера Феста, на крупном плане показаны женщины, а на общем несли Миронова каскадеры в платьях и шляпках. В перерывах они шалили, задирали юбки, застенчиво выставляя «ножки» в сапогах.
В фильме Андрей Миронов и Михаил Боярский поют сами. Караченцову доверили исполнить одну строчку. А за непоющую Александру Яковлеву песни исполнила певица Лариса Долина.
Специально для съемок ковбойских потасовок в Питере заказали особую травмобезопасную смолу, из которой в духовке отлили бутылки и стекла для окон. Эти «стекла» при ударе разлетались вдребезги, но пораниться ими было невозможно. Табуреты для драк изготовили из бальсового сверхлегкого дерева, растущего в Эквадоре.
В Париже нет «Бульвара Капуцинов», но есть «Бульвар Капуцинок» (женщин-монахинь).
На роль бармена Гарри вначале пробовался Николай Караченцов, в итоге сыгравший ковбоя Билли.
Рабочее название картины - «10 капель перед стрельбой» (цитата из фильма).
Занимает по посещаемости 36-е место среди отечественных фильмов за всю историю советского кинопроката.
Фамилия главного героя Андрея Миронова - мистер Фёст - переводится как «первый» (first, англ.). Герой Олега Табакова в конце фильма говорит про мистера Фёста, что он был первым, кто познакомил их городок с кинематографом.
Скриншоты:

Создавать темы 23-Июн-2017 20:48 (спустя 1 час 21 минута)

А чего не золото??!!!!
Рейтинг@Mail.ru