[ Сегодня на трекере фрилич! Идет свободное скачивание без начисления Download ]

(Rock) [CD] VA - The Greatest Male Artists - 1997, APE (image+.cue), lossless

 

Создавать темы 21-Янв-2014 02:28

0
Various Artists
The Greatest Male Artists

Жанр: Rock
Носитель: CD
Страна-производитель диска: UK
Год издания: 1997
Издатель (лейбл): The Daily Mirro
Номер по каталогу: M001
Аудиокодек: APE (*.ape)
Тип рипа: image+.cue
Битрейт аудио: lossless
Продолжительность: 00:52:29
Источник (релизер): собственный рип
Наличие сканов в содержимом раздачи: да-Треклист:
01 Rod Stewart – Maggie May
Written-By – Quittenton, Stewart 5:14
02 Tom Jones – What's New Pussycat
Written-By – Bacharach/David 2:05
03 Robert Palmer – Addicted To Love
Written-By – Palmer 4:24
04 James Brown – Get Up Offa That Thing
Written-By – Brown, Brown, Brown 4:10
05 Paul Weller – You Do Something To Me
Written-By – Weller 3:37
06 Marvin Gaye – Let's Get It On
Written-By – Townsend, Gaye 3:58
07 Joe Jackson – Is She Really Going Out With Him
Written-By – Jackson 3:34
08 Meat Loaf – You Took The Words Right Out Of My Mouth
Written-By – Steinman 4:11
09 Johnny Cash – Ring Of Fire
Written-By – Carter, Kilgore 2:35
10 Buddy Holly – Rave On
Written By – West
Written-By – Tighman, Petty, West 1:49

Bonus Tracks
11 Unknown Artist – Untitled 2:05
12 Unknown Artist – Untitled 3:08
13 Unknown Artist – Untitled 3:49
14 Unknown Artist – Untitled 4:47
15 Unknown Artist – Untitled 2:57
Бонусные трэки не имеют названий композиций и названий (имён) исполнителей - так на источнике (см. Discogs)

Лог создания рипа

Exact Audio Copy V1.0 beta 3 from 29. August 2011
Отчёт EAC об извлечении, выполненном 21. января 2014, 0:44
Various / The Greatest Male Artists
Дисковод: _NEC NR-7700A Adapter: 0 ID: 1
Режим чтения : ДостоверностьИспользование точного потока : ДаОтключение кэша аудио : ДаИспользование указателей C2 : Нет
Коррекция смещения при чтении : 685Способность читать области Lead-in и Lead-out : НетЗаполнение пропущенных сэмплов тишиной : ДаУдаление блоков с тишиной в начале и конце : НетПри вычислениях CRC использовались нулевые сэмплы : ДаИнтерфейс : Встроенный Win32-интерфейс для Win NT/2000
Выходной формат : Внутренние WAV-операцииФормат сэмплов : 44.100 Гц; 16 бит; стерео
TOC извлечённого CD
Трек | Старт | Длительность | Начальный сектор | Конечный сектор --------------------------------------------------------------------- 1 | 0:00.00 | 5:14.01 | 0 | 23550 2 | 5:14.01 | 2:05.02 | 23551 | 32927 3 | 7:19.03 | 4:24.53 | 32928 | 52780 4 | 11:43.56 | 4:10.34 | 52781 | 71564 5 | 15:54.15 | 3:37.56 | 71565 | 87895 6 | 19:31.71 | 3:58.13 | 87896 | 105758 7 | 23:30.09 | 3:34.02 | 105759 | 121810 8 | 27:04.11 | 4:11.39 | 121811 | 140674 9 | 31:15.50 | 2:35.05 | 140675 | 152304 10 | 33:50.55 | 1:49.02 | 152305 | 160481 11 | 35:39.57 | 2:05.63 | 160482 | 169919 12 | 37:45.45 | 3:08.57 | 169920 | 184076 13 | 40:54.27 | 3:49.53 | 184077 | 201304 14 | 44:44.05 | 4:47.37 | 201305 | 222866 15 | 49:31.42 | 2:57.53 | 222867 | 236194
Характеристики диапазона извлечения и сообщения об ошибках
Выбранный диапазон
Имя файла C:\[VA] The Greatest Male Artists [CD] - 1997 (lossless)\Various - The Greatest Male Artists (1997).wav
Пиковый уровень 99.0 % Скорость извлечения 4.5 X Качество диапазона 100.0 % CRC теста 79BC3651 CRC копии 79BC3651 Копирование... OK
Ошибок не произошло
AccurateRip: сводка
Трек 1 отсутствует в базе данныхТрек 2 отсутствует в базе данныхТрек 3 отсутствует в базе данныхТрек 4 отсутствует в базе данныхТрек 5 отсутствует в базе данныхТрек 6 отсутствует в базе данныхТрек 7 отсутствует в базе данныхТрек 8 отсутствует в базе данныхТрек 9 отсутствует в базе данныхТрек 10 отсутствует в базе данныхТрек 11 отсутствует в базе данныхТрек 12 отсутствует в базе данныхТрек 13 отсутствует в базе данныхТрек 14 отсутствует в базе данныхТрек 15 отсутствует в базе данных
Ни одного трека нет в базе AccurateRip
Конец отчёта
==== Контрольная сумма отчёта 9F3B4A47219AB6B0169418DFB30F9B9DE7354B4021D755E1362C20ED635FAE24 ====

Содержание индексной карты (.CUE)

REM GENRE RockREM DATE 1997REM DISCID CB0C4D0FREM COMMENT "ExactAudioCopy v1.0b3"PERFORMER "Various"TITLE "The Greatest Male Artists"FILE "Various - The Greatest Male Artists (1997).ape" WAVE TRACK 01 AUDIO TITLE "Maggie May" PERFORMER "Rod Stewart" INDEX 01 00:00:00 TRACK 02 AUDIO TITLE "What's New Pussycat" PERFORMER "Tom Jones" INDEX 01 05:14:01 TRACK 03 AUDIO TITLE "Addicted To Love" PERFORMER "Robert Palmer" INDEX 01 07:19:03 TRACK 04 AUDIO TITLE "Get Up Offa That Thing" PERFORMER "James Brown" INDEX 01 11:43:56 TRACK 05 AUDIO TITLE "You Do Something To Me" PERFORMER "Paul Weller" INDEX 01 15:54:15 TRACK 06 AUDIO TITLE "Let's Get It On" PERFORMER "Marvin Gaye" INDEX 01 19:31:71 TRACK 07 AUDIO TITLE "Is She Really Going Out With Him" PERFORMER "Joe Jackson" INDEX 01 23:30:09 TRACK 08 AUDIO TITLE "You Took The Words Right Out Of My Mouth" PERFORMER "Meat Loaf" INDEX 01 27:04:11 TRACK 09 AUDIO TITLE "Ring Of Fire" PERFORMER "Johnny Cash" INDEX 01 31:15:50 TRACK 10 AUDIO TITLE "Rave On" PERFORMER "Buddy Holly" INDEX 01 33:50:55 TRACK 11 AUDIO TITLE "Unknown Title" PERFORMER "Untitled" INDEX 01 35:39:57 TRACK 12 AUDIO TITLE "Unknown Title" PERFORMER "Untitled" INDEX 01 37:45:45 TRACK 13 AUDIO TITLE "Unknown Title" PERFORMER "Untitled" INDEX 01 40:54:27 TRACK 14 AUDIO TITLE "Unknown Title" PERFORMER "Untitled" INDEX 01 44:44:05 TRACK 15 AUDIO TITLE "Unknown Title" PERFORMER "Untitled" INDEX 01 49:31:42

Лог проверки качества

AUDIOCHECKER v2.0 beta (build 457) - by Dester - [email protected]~~~~~~~~~~~~~~~~~~~~~~~~~~~~~~~~~~
Начато: вторник, 21. 01. 2014. - 0:47.37Найдено файлов: 1
1 -===- C:\[VA] The Greatest Male Artists [CD] - 1997 (lossless)\Various - The Greatest Male Artists (1997).ape Извлечение успешно выполнено Заключение: этот трек - CDDA с вероятностью 100% Временный файл удалён.
Завершено: вторник, 21. 01. 2014. - 0:53.57 (Время операции: 0:06.20)

Скриншот спектра частот

Источник


Яндекс.Метрика
Рейтинг@Mail.ru