Весна на Заречной улице (Марлен Хуциев, Феликс Миронер) [1956, Мелодрама, WEB-DL, 1080p-LQ] [Цветная версия]

 

Создавать темы 09-Апр-2017 10:15

- Весна на Заречной улице - Производство: СССР / Одесская киностудия
Жанр: Мелодрама
Режиссер: Марлен Хуциев, Феликс Миронер
Актеры: Нина Иванова, Николай Рыбников, Владимир Гуляев, Валентина Пугачёва, Геннадий Юхтин, Римма Шорохова, Николай Ключнев, Марина Гаврилко, Юрий Белов, Валентин Брылеев и др.
Описание:
История любви юной учительницы школы рабочей молодежи и ее ученика — одна из самых популярных отечественных мелодрам. Герой фильма, парень лихой и самоуверенный, лучший сталевар завода, не привык к отказам женщин. И вдруг его домогательства получают отпор!..
Поначалу он пытается играть в безразличие. Но проходит время — и он вдруг понимает, что к нему впервые пришло настоящее, глубокое чувство.


Возраст: 12+ (зрителям, достигшим 12 лет)
Релиз от: Алехаndr
Продолжительность: 01:30:50
Качество видео: WEB-DL http://sendfile.su/1325310
Видео: AVC/H.264, 1920x1080 (16:9), ~2120 Kbps
Аудио: AC3, 6 ch, 448 Kbps

МИ

Общее
Уникальный идентификатор                 : 214998787154974172346227776772179061295 (0xA1BF429DB4318DD8951505C328796A2F)
Полное имя                               : D:\Весна на Заречной улице (1956).mkv
Формат                                   : Matroska
Версия формата                           : Version 4 / Version 2
Размер файла                             : 1,63 Гбайт
Продолжительность                        : 1 ч. 30 м.
Общий поток                              : 2570 Кбит/сек
Дата кодирования                         : UTC 2017-04-09 07:30:45
Программа кодирования                    : mkvmerge v10.0.0 ('To Drown In You') 64bit
Библиотека кодирования                   : libebml v1.3.4 + libmatroska v1.4.5 / Lavf57.25.100
Видео
Идентификатор                            : 1
Формат                                   : AVC
Формат/Информация                        : Advanced Video Codec
Профиль формата                          : [email protected]
Параметр CABAC формата                   : Да
Параметр ReFrames формата                : 3 кадра
Идентификатор кодека                     : V_MPEG4/ISO/AVC
Продолжительность                        : 1 ч. 30 м.
Битрейт                                  : 2120 Кбит/сек
Ширина                                   : 1920 пикселей
Высота                                   : 1080 пикселей
Соотношение сторон                       : 16:9
Режим частоты кадров                     : Постоянный
Частота кадров                           : 25,000 кадров/сек
Цветовое пространство                    : YUV
Субдискретизация насыщенности            : 4:2:0
Битовая глубина                          : 8 бит
Тип развёртки                            : Прогрессивная
Бит/(Пиксели*Кадры)                      : 0.041
Размер потока                            : 1,35 Гбайт (82%)
Default                                  : Да
Forced                                   : Нет
Аудио
Идентификатор                            : 2
Формат                                   : AC-3
Формат/Информация                        : Audio Coding 3
Параметр Endianness формата              : Big
Идентификатор кодека                     : A_AC3
Продолжительность                        : 1 ч. 30 м.
Вид битрейта                             : Постоянный
Битрейт                                  : 448 Кбит/сек
Каналы                                   : 6 каналов
Расположение каналов                     : Front: L C R, Side: L R, LFE
Частота                                  : 48,0 КГц
Частота кадров                           : 31,250 кадров/сек (1536 spf)
Битовая глубина                          : 16 бит
Метод сжатия                             : С потерями
Задержка видео                           : -40 мс.
Размер потока                            : 291 Мбайт (17%)
ServiceKind/String                       : Complete Main
Default                                  : Да
Forced                                   : Нет
Скриншоты:

Создавать темы 16-Апр-2017 22:08 (спустя 7 дней)

Скачал специально для матери это фильмы её молодости советую посмотреть.С уважением Anatoly
Рейтинг@Mail.ru