[ Сегодня на трекере фрилич! Идет свободное скачивание без начисления Download ]

(Шансон) Слава Бобков - Собрание сочинений. Дело № 022 - 2001, FLAC (image+.cue), lossless

 

Создавать темы 15-Янв-2014 23:26

--Слава Бобков - Собрание сочинений Дело № 022-- Жанр: Шансон
Страна-производитель диска: Россия
Год издания: 2001
Издатель (лейбл): Winner Music
Номер по каталогу: BK294
Аудиокодек: FLAC (*.flac)
Тип рипа: image+.cue
Битрейт аудио: lossless
Продолжительность: 01:11:41
Наличие сканов в содержимом раздачи: да

01. Такси-зелёный огонек (3:44)
02. Тики-Так (4:46)
03. Жанка-горожанка (3:35)
04. Добрый вечер, господа! (2:32)
05. В кабаке (3:27)
06. Девчонка уезжает за границу (3:55)
07. Беда (2:51)
08. Липкие пальчики (3:10)
09. Короче,ша! (4:45)
10. Пан или пропал (3:31)
11. Вы меня спросили!!! - Отвечаю... (2:23)12. Мои песни (2:42)
13. Полюбила Вера милиционера (2:48)
14. Поработаем-отдохнём! (3:52)
15. Про Ваню (2:22)
16. Чулочки (3:31)
17. Покупаю сигареты (Рынок) (2:03)
18. От плеча и до плеча (Дорога) (2:05)
19. Юлькин юбилей (3:47)
20. Дальнобойная (3:48)
21. Ништяк, браток! (2:05)
22. Шишки да иголки (4:00)

Отчёт ЕАС

Exact Audio Copy V1.0 beta 3 from 29. August 2011
Отчёт EAC об извлечении, выполненном 3. мая 2012, 18:00
Слава Бобков / Дело № 022
Дисковод: ASUS DRW-24B3ST Adapter: 1 ID: 1
Режим чтения : Достоверность
Использование точного потока : Да
Отключение кэша аудио : Да
Использование указателей C2 : Нет
Коррекция смещения при чтении : 6
Способность читать области Lead-in и Lead-out : Нет
Заполнение пропущенных сэмплов тишиной : Да
Удаление блоков с тишиной в начале и конце : Нет
При вычислениях CRC использовались нулевые сэмплы : Да
Интерфейс : Встроенный Win32-интерфейс для Win NT/2000
Выходной формат : Внутренние WAV-операции
Формат сэмплов : 44.100 Гц; 16 бит; стерео
TOC извлечённого CD
Трек | Старт | Длительность | Начальный сектор | Конечный сектор
---------------------------------------------------------------------
1 | 0:00.00 | 3:44.19 | 0 | 16818
2 | 3:44.19 | 4:45.60 | 16819 | 38253
3 | 8:30.04 | 3:35.27 | 38254 | 54405
4 | 12:05.31 | 2:32.36 | 54406 | 65841
5 | 14:37.67 | 3:26.44 | 65842 | 81335
6 | 18:04.36 | 3:55.07 | 81336 | 98967
7 | 21:59.43 | 2:50.73 | 98968 | 111790
8 | 24:50.41 | 3:10.06 | 111791 | 126046
9 | 28:00.47 | 4:45.07 | 126047 | 147428
10 | 32:45.54 | 3:30.54 | 147429 | 163232
11 | 36:16.33 | 2:23.08 | 163233 | 173965
12 | 38:39.41 | 2:41.46 | 173966 | 186086
13 | 41:21.12 | 2:48.35 | 186087 | 198721
14 | 44:09.47 | 3:51.50 | 198722 | 216096
15 | 48:01.22 | 2:21.48 | 216097 | 226719
16 | 50:22.70 | 3:30.55 | 226720 | 242524
17 | 53:53.50 | 2:02.54 | 242525 | 251728
18 | 55:56.29 | 2:05.29 | 251729 | 261132
19 | 58:01.58 | 3:46.74 | 261133 | 278156
20 | 61:48.57 | 3:47.54 | 278157 | 295235
21 | 65:36.36 | 2:04.73 | 295236 | 304608
22 | 67:41.34 | 3:59.52 | 304609 | 322585
Характеристики диапазона извлечения и сообщения об ошибках
Выбранный диапазон
Имя файла C:\Слава Бобков - Дело № 022\Слава Бобков - Дело № 022.wav
Пиковый уровень 96.6 %
Скорость извлечения 3.7 X
Качество диапазона 100.0 %
CRC теста D3227E2A
CRC копии D3227E2A
Копирование... OK
Ошибок не произошло
AccurateRip: сводка
Трек 1 отсутствует в базе данных
Трек 2 отсутствует в базе данных
Трек 3 отсутствует в базе данных
Трек 4 отсутствует в базе данных
Трек 5 отсутствует в базе данных
Трек 6 отсутствует в базе данных
Трек 7 отсутствует в базе данных
Трек 8 отсутствует в базе данных
Трек 9 отсутствует в базе данных
Трек 10 отсутствует в базе данных
Трек 11 отсутствует в базе данных
Трек 12 отсутствует в базе данных
Трек 13 отсутствует в базе данных
Трек 14 отсутствует в базе данных
Трек 15 отсутствует в базе данных
Трек 16 отсутствует в базе данных
Трек 17 отсутствует в базе данных
Трек 18 отсутствует в базе данных
Трек 19 отсутствует в базе данных
Трек 20 отсутствует в базе данных
Трек 21 отсутствует в базе данных
Трек 22 отсутствует в базе данных
Ни одного трека нет в базе AccurateRip
Конец отчёта
==== Контрольная сумма отчёта 75E3233CB9F9753A71B1E125F0EF8943EFD1EC6FC373E31D5E69903949E468E5 ====
Рейтинг@Mail.ru