Помутнение / A Scanner Darkly (Ричард Линклейтер / Richard Linklater) [2006 г., фантастика, драма, криминал, BDRip] (MVO)

 

Создавать темы 15-Янв-2014 02:39

Помутнение / A Scanner Darkly Год выпуска: 2006
Мировая премьера: 25 мая 2006
Дата выхода DVD: 24 ноября 2011, «CP-Digital»
Производство: США
Жанр: фантастика, драма, криминал
Продолжительность: 01:40:25
Перевод: профессиональный (многоголосый, закадровый)
Режиссер: Ричард Линклейтер / Richard Linklater
В ролях: Киану Ривз
Роберт Дауни мл.
Рори Кокрейн
Митч Бэйкер
Шон Аллен
Клифф Хейби
Стивен Честер Принц
Вайнона Райдер
Наташа Валдез
Марк Тернер
Описание: Действие фильма разворачивается в недалеком будущем в округе Орандж, штат Калифорния. В эту эпоху, когда Америку окончательно захлестнул вал наркотиков, умами и телами людей завладела таинственная Субстанция Д, полностью разрушающая их психику. Главный герой ленты — тайный агент отдела полиции по борьбе с наркотиками Роберт Арктор, который в связи с характером своей деятельности тоже становится наркозависимым.
Однажды ему поручают шпионить за его друзьями: Джимом Баррисом, Эрни Лакманом, Донной Хоторн и Чарльзом Фреком. Ситуация еще более осложняется, когда Баррис начинает доносить на Арктора.
Доп. информация: сценарий Ричард Линклейтер, Филип К. Дик
продюсер Эрвин Стофф, Энн Уолкер-МакБэй, Палмер Уэст,
оператор Шэйн Ф. Келли
композитор Грэхэм Рейнольдс
художник Брюс Кертис, Кэри Перкинс, Хоакин А. Морин
монтаж Сандра Шихэн
бюджет $8 000 000
сборы в США $5 501 616
сборы в мире + $2 158 302 = $7 659 918

, КиноПоиск
Источник/Качество: BDRip (1080p)
Формат: AVI
Видео кодек: XviD
Аудио кодек: AC3
Видео: 704x400 (1.76:1), 23.976 fps, XviD build 50 ~1683 kbps avg, 0.25 bit/pixel
Аудио: 48 kHz, AC3 Dolby Digital, 3/2 (L,C,R,l,r) + LFE ch, ~384.00 kbps avg
Субтитры: нет

Награды

Сатурн, 2007 год
Номинации (1):
Лучший анимационный фильм

Media Info

General
Format : AVI
Format/Info : Audio Video Interleave
File size : 1.46 GiB
Duration : 1h 40mn
Overall bit rate : 2 077 Kbps
Movie name : Помутнение / A Scanner Darkly (2006) BDRip
Director : xxL
Writing application : VirtualDubMod 1.5.10.2 (build 2542/release)
Copyright : http://forum.hqclub.net/
Comment : 24.09.2010
Video #0
ID : 0
Format : MPEG-4 Visual
Format profile : [email protected]
Format settings, BVOP : Yes
Format settings, QPel : No
Format settings, GMC : No warppoints
Format settings, Matrix : Custom
Codec ID : XVID
Codec ID/Hint : XviD
Duration : 1h 40mn
Bit rate : 1 684 Kbps
Width : 704 pixels
Height : 400 pixels
Display aspect ratio : 16:9
Frame rate : 23.976 fps
Resolution : 24 bits
Colorimetry : 4:2:0
Scan type : Progressive
Bits/(Pixel*Frame) : 0.249
Stream size : 1.18 GiB (81%)
Writing library : XviD 1.2.1 (UTC 2008-12-04)
Audio #1
ID : 1
Format : AC-3
Format/Info : Audio Coding 3
Codec ID : 2000
Duration : 1h 40mn
Bit rate mode : Constant
Bit rate : 384 Kbps
Channel(s) : 6 channels
Channel positions : Front: L C R, Surround: L R, LFE
Sampling rate : 48.0 KHz
Stream size : 276 MiB (18%)
Alignment : Split accross interleaves
Interleave, duration : 42 ms (1.00 video frame)
Interleave, preload duration : 500 ms

Скриншоты

--
Яндекс.Метрика
Рейтинг@Mail.ru