Самозванец с гитарой / Mocne uderzenie (Ежи Пассендорфер / Jerzy Passendorfer) [1966 г., Музыкальная комедия, DVDRip] Dub

 

Создавать темы 09-Окт-2016 04:29

-Самозванец с гитарой / Mocne uderzenie-- Производство: Польша, ZRF "Kadr"
Год выпуска: 1966 г.
Жанр: Музыкальная комедия
Продолжительность: 01:18:41Мировая премьера: 26 марта 1967
Российская премьера: СССР 1971
Перевод: Профессиональный (полное дублирование) [Советский дубляж]
Режиссер: Ежи Пассендорфер / Jerzy Passendorfer-В ролях: Магдалена Завадска, Ежи Турек, Ирена Щуровска, Веньчислав Глиньский, Веслав Михниковский, Мария Хмурковская, Александр Дзвонковский, Зофья Червиньска, Зофиа Ямры, Ежи Карашкевич-Описание: Кубэк и Майка — жених и невеста. Сегодня бракосочетание. Но свадьба не состоялась — незнакомая девушка устроила Кубэку у мэрии скандал, обвиняя его в неверности. Оказалось, что у Кубэка есть двойник, эстрадный певец Джонни Томаля. О том, как Кубэк в поисках Джонни попал на телевидение, и сам стал певцом, как он нашел счастье, и рассказывает фильм.-
Качество видео: DVDRip
Контейнер: AVI
Видео кодек: XviD
Аудио кодек: AC3
Видео: 788x552 (1.43:1), 25 fps, XviD build 50 ~2992 kbps avg, 0.28 bit/pixel
Аудио: 48 kHz, AC3 Dolby Digital, 2/0 (L,R) ch, ~384 kbps
Cубтитры: отсутствуют

Media Info

Общее
Полное имя : J:\Самозванец с гитарой\Samozvanec s gitaroj.1966.DVDRip.[pirat.ca].avi
Формат : AVI
Формат/Информация : Audio Video Interleave
Размер файла : 1,86 Гбайт
Продолжительность : 1 ч. 18 м.
Общий поток : 3386 Кбит/сек
Программа кодирования : VirtualDubMod 1.5.10.3 | www.virtualdub-fr.org || (build 2550/release)
Библиотека кодирования : VirtualDubMod build 2550/releaseВидео
Идентификатор : 0
Формат : MPEG-4 Visual
Профиль формата : Advanced [email protected]/* */
Параметр BVOP формата : 1
Параметр QPel формата : Нет
Параметр GMC формата : Без точки перехода
Параметр матрицы формата : Default (H.263)
Идентификатор кодека : XVID
Идентификатор кодека/Подсказка : XviD
Продолжительность : 1 ч. 18 м.
Битрейт : 2993 Кбит/сек
Ширина : 788 пикселей
Высота : 552 пикселя
Соотношение сторон : 1,428
Частота кадров : 25,000 кадров/сек
Цветовое пространство : YUV
Субдискретизация насыщенности : 4:2:0
Битовая глубина : 8 бит
Тип развёртки : Прогрессивная
Метод сжатия : С потерями
Бит/(Пиксели*Кадры) : 0.275
Размер потока : 1,65 Гбайт (88%)
Библиотека кодирования : XviD 1.2.1 (UTC 2008-12-04)Аудио
Идентификатор : 1
Формат : AC-3
Формат/Информация : Audio Coding 3
Расширение режима : CM (complete main)
Параметр Endianness формата : Big
Идентификатор кодека : 2000
Продолжительность : 1 ч. 18 м.
Вид битрейта : Постоянный
Битрейт : 384 Кбит/сек
Каналы : 2 канала
Расположение каналов : Front: L R
Частота : 48,0 КГц
Частота кадров : 31,250 кадров/сек (1536 spf)
Метод сжатия : С потерями
Размер потока : 216 Мбайт (11%)
Выравнивание : Разделение по промежуткам
Продолжительность промежутка : 40 мс. (1,00 видеокадр)
Время предзагрузки промежутка : 500 мс.

Скриншот c названием фильма

Скриншоты

Трейлер

Яндекс.Метрика
Рейтинг@Mail.ru