[ Сегодня на трекере фрилич! Идет свободное скачивание без начисления Download ]

Икона ( Фёдор Кудряшов)[ 2012, Документальный, HDTVRip]

 

Создавать темы 07-Янв-2014 06:13

Оригинальное название: Икона
Год выпуска: 2012
Жанр: Документальный
Выпущено: Россия
Режиссер: Фёдор Кудряшов
Продолжительность: 00:51:22
О фильме:
Так, что же такое икона? Икона — это не картина, икона — это святой образ. По выражению русских религиозных философов, икона — это окно, помогающее человеку во время молитвы взглянуть в горний, то есть высший мир.
Иконописное искусство имеет свои изобразительные законы и художественные средства. На иконе, как правило, нет уходящего вглубь пространства. Или, например, одно и то же здание может быть показано и снаружи, и изнутри. На одной иконе могут изображаться разновременные события. Каждый жест имеет символическое значение, каждая краска и каждая линия на иконе также не случайны — они отражают духовные закономерности иконописи.
По словам священника Павла Флоренского, святая икона и святая жизнь - есть нечто, "имеющее иную реальность",
в иной плоскости бытия пребывающее.

Качество: HDTVRip
Видео: XviD, 1849 Кбит/с, 720x400
Аудио: AC3, 2 ch, 192 Кбит/с

Скриншоты

MI

Общее
Полное имя : Икона (2012).avi
Формат : AVI
Формат/Информация : Audio Video Interleave
Размер файла : 679 Мбайт
Продолжительность : 51 м.
Общий поток : 1849 Кбит/сек
Программа кодирования : VirtualDubMod 1.5.10.3 | www.virtualdub-fr.org || (build 2550/release)
Библиотека кодирования : VirtualDubMod build 2550/release
Видео
Идентификатор : 0
Формат : MPEG-4 Visual
Профиль формата : Advanced [email protected]
Параметр BVOP формата : 2
Параметр QPel формата : Нет
Параметр GMC формата : Без точки перехода
Параметр матрицы формата : Выборочная
Идентификатор кодека : XVID
Идентификатор кодека/Подсказка : XviD
Продолжительность : 51 м.
Битрейт : 1647 Кбит/сек
Ширина : 720 пикселей
Высота : 400 пикселей
Соотношение сторон : 16:9
Частота кадров : 25,000 кадров/сек
Цветовое пространство : YUV
Субдискретизация насыщенности : 4:2:0
Битовая глубина : 8 бит
Тип развёртки : Прогрессивная
Метод сжатия : С потерями
Бит/(Пиксели*Кадры) : 0.229
Размер потока : 605 Мбайт (89%)
Библиотека кодирования : XviD 1.2.1 (UTC 2008-12-04)
Аудио
Идентификатор : 1
Формат : AC-3
Формат/Информация : Audio Coding 3
Расширение режима : CM (complete main)
Параметр Endianness формата : Big
Идентификатор кодека : 2000
Продолжительность : 51 м.
Вид битрейта : Постоянный
Битрейт : 192 Кбит/сек
Каналы : 2 канала
Расположение каналов : Front: L R
Частота : 48,0 КГц
Битовая глубина : 16 бит
Метод сжатия : С потерями
Размер потока : 70,6 Мбайт (10%)
Выравнивание : Разделение по промежуткам
Продолжительность промежутка : 40 мс. (1,00 видеокадр)
Время предзагрузки промежутка : 500 мс.
Яндекс.Метрика
Рейтинг@Mail.ru