Лео и Тиг / Сезон: 1 / Серии: 1 из 5 (Александр Люткевич) [2016 г., Мультфильм, комедия, семейный, 0+, WEB-DLRip-AVC] + Original (Rus)

 

Создавать темы 04-Окт-2016 08:30

-Лео и Тиг-- Производство: Россия, «Паровоз»
Режиссер: Александр Люткевич
Жанр: Мультфильм, комедия, семейный, 0+
Год выпуска: 2016 г.
Продолжительность: 00:11:00Перевод: Не требуется
Оригинальный аудиопоток: русскийРоли озвучивали: Агния Кузнецова, Александра Урсуляк, Дмитрий Назаров, Диамид Виноградов, Елена Шульман-Описание: В лесах Приморского края России родился леопард по имени Лео. Он очень редкого вида, из сородичей у него осталась только мама. А из сверстников — тигренок по имени Тиг. Неразлучные друзья, ни дня не могут прожить без приключений. Им все интересно, они встречаются с необычными явлениями природы, разгадывают загадки, устраивают состязания, помогают тем, кому нужна их помощь. Неутомимые исследователи открывают для себя и зрителей удивительный мир Приморского края, его уникальную природу, которая в глазах ребенка приобретает магические способности, оживать и помогать всем, кто верит в чудеса. Ведь мир, в котором все мы живем, это наш дом...-Сэмпл
Качество видео: WEB-DLRip-AVC
Контейнер: MKV
Видео кодек: MPEG4 AVC
Аудио кодек: AC3
Видео: 2023 Кбит/с, 1024x576, 25,000 кадров/сек
Аудио: AC3, 2 ch, 192 Кбит/с, 44,1 КГц
Cубтитры: отсутствуют

Media Info

Общее
Уникальный идентификатор : 253402675718740416932974875873628623590 (0xBEA394827253EE35AF977EEB23CB92E6)
Полное имя : F:\Лео и Тиг (2016)\Leo i Tig.2016.WEB-DLRip-AVC.[pirat.ca]\Leo i Tig.E01.Shkura solntsa.2016.WEB-DLRip-AVC.[pirat.ca].mkv
Формат : Matroska
Версия формата : Version 2
Размер файла : 174 Мбайт
Продолжительность : 11 м.
Общий поток : 2214 Кбит/сек
Название фильма : Лео и Тиг. 1.Шкура солнца 2016
Дата кодирования : UTC 2016-10-04 00:16:06
Программа кодирования : mkvmerge v5.3.0 ('I could have danced') built on Feb 9 2012 10:38:07
Библиотека кодирования : libebml v1.2.3 + libmatroska v1.3.0Видео
Идентификатор : 1
Формат : AVC
Формат/Информация : Advanced Video Codec
Профиль формата : [email protected]/* */
Параметр CABAC формата : Да
Параметр ReFrames формата : 10 кадров
Идентификатор кодека : V_MPEG4/ISO/AVC
Продолжительность : 11 м.
Битрейт : 2023 Кбит/сек
Ширина : 1024 пикселя
Высота : 576 пикселей
Соотношение сторон : 16:9
Режим частоты кадров : Постоянный
Частота кадров : 25,000 кадров/сек
Цветовое пространство : YUV
Субдискретизация насыщенности : 4:2:0
Битовая глубина : 8 бит
Тип развёртки : Прогрессивная
Бит/(Пиксели*Кадры) : 0.137
Размер потока : 156 Мбайт (89%)
Библиотека кодирования : x264 core 144 r2525 40bb568
Настройки программы : cabac=1 / ref=10 / deblock=1:-2:-2 / analyse=0x3:0x113 / me=umh / subme=10 / psy=1 / psy_rd=1.05:0.15 / mixed_ref=1 / me_range=32 / chroma_me=1 / trellis=2 / 8x8dct=1 / cqm=0 / deadzone=21,11 / fast_pskip=0 / chroma_qp_offset=-3 / threads=12 / lookahead_threads=2 / sliced_threads=0 / nr=0 / decimate=0 / interlaced=0 / bluray_compat=0 / constrained_intra=0 / bframes=9 / b_pyramid=2 / b_adapt=2 / b_bias=0 / direct=3 / weightb=1 / open_gop=0 / weightp=2 / keyint=250 / keyint_min=25 / scenecut=40 / intra_refresh=0 / rc_lookahead=40 / rc=2pass / mbtree=0 / bitrate=2023 / ratetol=1.0 / qcomp=0.60 / qpmin=0 / qpmax=51 / qpstep=4 / cplxblur=20.0 / qblur=0.5 / vbv_maxrate=50000 / vbv_bufsize=62500 / nal_hrd=none / filler=0 / ip_ratio=1.40 / pb_ratio=1.30 / aq=1:1.00
Язык : English
Default : Да
Forced : Нет
Цветовой диапазон : Limited
Основные цвета : BT.709
Характеристики трансфера : BT.709
Коэффициенты матрицы : BT.709Аудио
Идентификатор : 2
Формат : AC-3
Формат/Информация : Audio Coding 3
Расширение режима : CM (complete main)
Параметр Endianness формата : Big
Идентификатор кодека : A_AC3
Продолжительность : 11 м.
Вид битрейта : Постоянный
Битрейт : 192 Кбит/сек
Каналы : 2 канала
Расположение каналов : Front: L R
Частота : 44,1 КГц
Частота кадров : 28,711 кадров/сек (1536 spf)
Метод сжатия : С потерями
Размер потока : 15,1 Мбайт (9%)
Язык : Russian
Default : Да
Forced : Нет

Скриншот c названием мультфильма

Скриншоты

Яндекс.Метрика
Рейтинг@Mail.ru