[ Сегодня на трекере фрилич! Идет свободное скачивание без начисления Download ]

Барьер / Barierata (Христо Христов / Christo Christov) [1979 г., драма, фэнтези, DVDRip] Dub [Советский дубляж]

 

Создавать темы 04-Окт-2016 08:24

-Барьер / Barierata-- Производство: Болгария
Год выпуска: 1979 г.
Жанр: драма, фэнтези
Продолжительность: 01:45:16Мировая премьера: 11 ноября 1979
Перевод: Профессиональный (полное дублирование) [Советский дубляж]
Режиссер: Христо Христов / Christo Christov-В ролях: Иннокентий Смоктуновский, Ваня Цветкова, Мария Димчева, Евгения Баракова, Иван Кондов, Румиания Парванова, Панайот Янев, Димитар Георгиев, Георгий Стоянов, Любомир Бачваров-Описание: Преуспевающий композитор Антоний Манев очерствел душой и сердцем, утратил способность удивляться миру. Но неожиданно в его жизни появляется девушка Доротея, умеющая летать. До встречи с ней Манев думал, что он знает о жизни все…-
Качество видео: DVDRip
Контейнер: AVI
Видео кодек: XviD
Аудио кодек: AC3
Видео: 624x480 (1.30:1), 25 fps, XviD build 50 ~1604 kbps avg, 0.21 bit/pixel
Аудио: 48 kHz, AC3 Dolby Digital, 1/0 (C) ch, ~96 kbps
Cубтитры: русские на вырезанные фрагменты, русские полные, английские
Формат субтитров: softsub (SRT)
Доп. информация о субтитрах: внешние

Награды

ММКФ, 1979 год
Победитель (1):
Серебряный приз
Номинации (1):
Золотой приз

Media Info

Общее
Полное имя : G:\Барьер\Barier.1979.DVDRip.[pirat.ca]\Barier.1979.XviD.DVDRip.624x480.avi
Формат : AVI
Формат/Информация : Audio Video Interleave
Размер файла : 1,26 Гбайт
Продолжительность : 1 ч. 45 м.
Общий поток : 1711 Кбит/сек
Программа кодирования : VirtualDubMod 1.5.10.3 (build 2550/release)
Библиотека кодирования : VirtualDubMod build 2550/releaseВидео
Идентификатор : 0
Формат : MPEG-4 Visual
Профиль формата : Advanced [email protected]/* */
Параметр BVOP формата : 1
Параметр QPel формата : Нет
Параметр GMC формата : Без точки перехода
Параметр матрицы формата : Default (MPEG)
Идентификатор кодека : XVID
Идентификатор кодека/Подсказка : XviD
Продолжительность : 1 ч. 45 м.
Битрейт : 1605 Кбит/сек
Ширина : 624 пикселя
Высота : 480 пикселей
Соотношение сторон : 4:3
Частота кадров : 25,000 кадров/сек
Цветовое пространство : YUV
Субдискретизация насыщенности : 4:2:0
Битовая глубина : 8 бит
Тип развёртки : Прогрессивная
Метод сжатия : С потерями
Бит/(Пиксели*Кадры) : 0.214
Размер потока : 1,18 Гбайт (94%)
Библиотека кодирования : XviD 1.2.1 (UTC 2008-12-04)Аудио
Идентификатор : 1
Формат : AC-3
Формат/Информация : Audio Coding 3
Расширение режима : CM (complete main)
Параметр Endianness формата : Big
Идентификатор кодека : 2000
Продолжительность : 1 ч. 45 м.
Вид битрейта : Постоянный
Битрейт : 96,0 Кбит/сек
Каналы : 1 канал
Расположение каналов : Front: C
Частота : 48,0 КГц
Частота кадров : 31,250 кадров/сек (1536 spf)
Метод сжатия : С потерями
Размер потока : 72,3 Мбайт (6%)
Выравнивание : Разделение по промежуткам
Продолжительность промежутка : 40 мс. (1,00 видеокадр)
Время предзагрузки промежутка : 500 мс.

Скриншот c названием фильма

Скриншоты

Трейлер

Яндекс.Метрика
Рейтинг@Mail.ru