[ Сегодня на трекере фрилич! Идет свободное скачивание без начисления Download ]

Робинзон Крузо: Очень обитаемый остров / Robinson Crusoe (Винсент Кестелут / Vincent Kesteloot, ...) [2016 г., мультфильм, комедия, приключения, BDRip, 720p] Dub [BD Rus] + Original (Ger, Eng) +Sub (Ger)

 

Создавать темы 27-Сен-2016 02:19

-Робинзон Крузо: Очень обитаемый остров / Robinson Crusoe-- Производство: Франция, Бельгия / nWave Pictures, Studio Canal, uFilm.
Год выпуска: 2016 г.
Жанр: мультфильм, комедия, приключения
Продолжительность: 01:30:27Мировая премьера: 4 февраля 2016
Российская премьера: 14 апреля 2016, «Вольга»
Перевод: Профессиональный (полное дублирование) [BD Rus]
Оригинальный аудиопоток: немецкий, английскийРежиссер: Винсент Кестелут / Vincent Kesteloot, Бен Стассен / Ben Stassen-В ролях: Рон Аллен (Bosun), Джордж Бэббит (Sleeping Sailor), Лайла Берзиньш (Rosie), Илька Бессин (Tapir Rosie, озвучка), Джои Камен (Scrubby), Джефф Дусетте (Mal), Джефф Дусетте (Pango), Сэнди Фокс (Epi), Дитер Халлерворден (Ziegenbock Zottel, озвучка), Кайл Херберт (Tom Cat), Мэриев Херингтон (Kiki), Дэвид Ховард (Tuesday)-Описание: Все знают историю о Робинзоне Крузо, попавшем на необитаемый остров. Однако, как же можно назвать его необитаемым, если он населен разнообразными веселыми животными и птицами? Они очень удивились, впервые встретив это странное существо, и даже приняли его за морское чудовище. Попугаю по кличке Вторник и его друзьям — хамелеону, тапиру и другим обитателям острова предстоит поближе познакомиться с незнакомым зверем «человеком» и вместе с ним пережить массу опасных и веселых приключений.-
Качество видео: BDRip
Контейнер: MKV
Стандарт разрешения: 720p
Видео кодек: MPEG4 AVC
Аудио кодек: AC3
Видео: 1280x536, 3902 Kbit/s, 23.976 fps
Аудио: 48 kHz, AC3, 5.1, 640 Kbps
Аудио #2: 48 kHz, AC3, 5.1, 448 kbps
Аудио #3: 48 kHz, AC3, 5.1, 448 kbpsCубтитры: немецкие
Формат субтитров: softsub (SSA/ASS)
Доп. информация о субтитрах: включаемые

Рецензия

Война войной, а обед по расписаниюХорошо, что я много ем на ночь (с)Европейские, особенно французские мультфильмы стали все чаще и громче заявлять о себе. Да у них есть проблемы, над которыми создателям еще нужно будет поработать, но по сравнению со многими другими, они смотрятся на голову выше, как по качеству, так и сюжетно. Новой ступенью такой анимации стал мультфильм «Робинзон Крузо: Очень обитаемый остров», авторы которого решили переписать всем известную историю и попытались сделать свой проект интересным для каждого зрителя.Остров, на который попадает Робинзон Крузо в компании своего верным псом, оказывается вполне заселенным, правда не людьми, а животными и птицами.Первоначально, местные конфликтуют с новыми соседями, но осознав свою ошибку, заключают перемирие и стараются ужиться вместе. Робинзон мечтает о возвращении в Лондон, а обитатели острова наслаждаются благами, которые смог соорудить для них человек.Авторы смотрят на классическую историю о Робинзоне Крузо под иным углом, усложняя ее и населив сюжет многочисленными говорящими животными. А сам жизненный путь Робинзона, по крайней мере зрителям, рассказывается не самим потерпевшим кораблекрушение, а его верным попугаем Вторником. Несмотря на то, что сценарий мультфильма базируется на классической основе, в нем встречаются шероховатости и дыры, а под конец и излишние нагромождения. Все это явно говорит о том, что создатели на всякий случай продумали варианты для продолжения истории Робинзона Крузо.Дубляж у мультфильма получился на зависть, хотя в озвучке не принимали участие звезды, если таким не считать русский голос Дэдпула, остальных зрители все равно уже тоже где-то слышали, поэтому герои проекта звучат, как родные.Авторы добавили 3d эффекты в самых ответственных и важных для развития сюжета сценах, оживляя действие и создавая на экране настоящий аттракцион, не только для героев, но и для тех, кто уютно устроился в креслах в зрительном зале.«Робинзон Крузо: Очень обитаемый остров» — проект, который звезд с неба не хватает. Да у мультфильма имеются явные проблемы и провисания, зато юмор, дубляж и прорисовка старательно это нивелируют. Очередную попытку борьбы Европейской мультипликации с Голливудом можно считать пройденной успешно, ведь мультфильм получился цельным, качественным, со смыслом и моралью, а остальное авторы доработают в дальнейшем.7 из 10

Media Info

Общее
Уникальный идентификатор : 253132743337584675205581644914849018979 (0xBE6F97D0CE4BA070BBD3DEAB61F0F463)
Полное имя : J:\Робинзон Крузо\Robinzon Kruzo.Ochenj Obitaemyj Ostrov.2016.BDRip.720p.GER-Transfer.[pirat.ca].mkv
Формат : Matroska
Версия формата : Version 2
Размер файла : 3,43 Гбайт
Продолжительность : 1 ч. 30 м.
Общий поток : 5435 Кбит/сек
Дата кодирования : UTC 2016-09-26 13:58:23
Программа кодирования : mkvmerge v5.3.0 ('I could have danced') built on Feb 9 2012 10:38:07
Библиотека кодирования : libebml v1.2.3 + libmatroska v1.3.0Видео
Идентификатор : 1
Формат : AVC
Формат/Информация : Advanced Video Codec
Профиль формата : [email protected]/* */
Параметр CABAC формата : Да
Параметр ReFrames формата : 12 кадров
Идентификатор кодека : V_MPEG4/ISO/AVC
Продолжительность : 1 ч. 30 м.
Битрейт : 3791 Кбит/сек
Ширина : 1280 пикселей
Высота : 536 пикселей
Соотношение сторон : 2,40:1
Режим частоты кадров : Постоянный
Частота кадров : 23,976 (24000/1001) кадра/сек
Цветовое пространство : YUV
Субдискретизация насыщенности : 4:2:0
Битовая глубина : 8 бит
Тип развёртки : Прогрессивная
Бит/(Пиксели*Кадры) : 0.230
Размер потока : 2,40 Гбайт (70%)
Заголовок : GER-Transfer Blu-ray
Библиотека кодирования : x264 core 148 r2699 a5e06b9
Настройки программы : cabac=1 / ref=12 / deblock=1:-3:-3 / analyse=0x3:0x133 / me=umh / subme=10 / psy=1 / psy_rd=0.90:0.00 / mixed_ref=1 / me_range=32 / chroma_me=1 / trellis=2 / 8x8dct=1 / cqm=0 / deadzone=21,11 / fast_pskip=1 / chroma_qp_offset=-2 / threads=6 / lookahead_threads=1 / sliced_threads=0 / nr=0 / decimate=1 / interlaced=0 / bluray_compat=0 / constrained_intra=0 / bframes=8 / b_pyramid=2 / b_adapt=2 / b_bias=0 / direct=3 / weightb=1 / open_gop=0 / weightp=2 / keyint=250 / keyint_min=23 / scenecut=40 / intra_refresh=0 / rc_lookahead=60 / rc=crf / mbtree=1 / crf=14.5 / qcomp=0.60 / qpmin=0 / qpmax=69 / qpstep=4 / ip_ratio=1.40 / aq=1:0.90
Язык : French
Default : Да
Forced : Нет
Statistics Tags Issue : mkvmerge v8.3.0 ('Over the Horizon') 64bit 2016-07-25 12:16:56 / mkvmerge v5.3.0 ('I could have danced') built on Feb 9 2012 10:38:07 2016-09-26 13:58:23
FromStats_BitRate : 3902478
FromStats_Duration : 01:30:26.713000000
FromStats_FrameCount : 130111
FromStats_StreamSize : 2647203833Аудио #1
Идентификатор : 2
Формат : AC-3
Формат/Информация : Audio Coding 3
Расширение режима : CM (complete main)
Параметр Endianness формата : Big
Идентификатор кодека : A_AC3
Продолжительность : 1 ч. 30 м.
Вид битрейта : Постоянный
Битрейт : 640 Кбит/сек
Каналы : 6 каналов
Расположение каналов : Front: L C R, Side: L R, LFE
Частота : 48,0 КГц
Частота кадров : 31,250 кадров/сек (1536 spf)
Метод сжатия : С потерями
Размер потока : 414 Мбайт (12%)
Заголовок : Dub | DD 5.1 @ 640 kbps - Blu-ray | GER-Transfer | RUS
Язык : Russian
Default : Да
Forced : Нет
Statistics Tags Issue : mkvmerge v8.3.0 ('Over the Horizon') 64bit 2016-07-25 12:16:56 / mkvmerge v5.3.0 ('I could have danced') built on Feb 9 2012 10:38:07 2016-09-26 13:58:23
FromStats_BitRate : 640000
FromStats_Duration : 01:29:43.200000000
FromStats_FrameCount : 168225
FromStats_StreamSize : 430656000Аудио #2
Идентификатор : 3
Формат : AC-3
Формат/Информация : Audio Coding 3
Расширение режима : CM (complete main)
Параметр Endianness формата : Big
Идентификатор кодека : A_AC3
Продолжительность : 1 ч. 30 м.
Вид битрейта : Постоянный
Битрейт : 448 Кбит/сек
Каналы : 6 каналов
Расположение каналов : Front: L C R, Side: L R, LFE
Частота : 48,0 КГц
Частота кадров : 31,250 кадров/сек (1536 spf)
Метод сжатия : С потерями
Размер потока : 290 Мбайт (8%)
Заголовок : Original | DD 5.1 @ 448 kbps | GER-Transfer
Язык : German
Default : Нет
Forced : НетАудио #3
Идентификатор : 4
Формат : AC-3
Формат/Информация : Audio Coding 3
Расширение режима : CM (complete main)
Параметр Endianness формата : Big
Идентификатор кодека : A_AC3
Продолжительность : 1 ч. 30 м.
Вид битрейта : Постоянный
Битрейт : 448 Кбит/сек
Каналы : 6 каналов
Расположение каналов : Front: L C R, Side: L R, LFE
Частота : 48,0 КГц
Частота кадров : 31,250 кадров/сек (1536 spf)
Метод сжатия : С потерями
Задержка видео : 24 мс.
Размер потока : 290 Мбайт (8%)
Заголовок : English | DD 5.1 @ 448 kbps | GER-Transfer
Язык : English
Default : Нет
Forced : Нет
Statistics Tags Issue : mkvmerge v8.3.0 ('Over the Horizon') 64bit 2016-07-25 12:16:56 / mkvmerge v5.3.0 ('I could have danced') built on Feb 9 2012 10:38:07 2016-09-26 13:58:23
FromStats_BitRate : 448000
FromStats_Duration : 01:30:22.560000000
FromStats_FrameCount : 169455
FromStats_StreamSize : 303663360Текст
Идентификатор : 5
Формат : UTF-8
Идентификатор кодека : S_TEXT/UTF8
Идентификатор кодека/Информация : UTF-8 Plain Text
Заголовок : SDH | GER-Transfer
Язык : German
Default : Нет
Forced : НетМеню
00:00:00.000 : en:(01)00:00:00:000
00:11:40.322 : en:(02)00:11:40:322
00:24:47.067 : en:(03)00:24:47:067
00:35:02.266 : en:(04)00:35:02:266
00:44:30.208 : en:(05)00:44:30:208
00:54:34.271 : en:(06)00:54:34:271
01:04:27.280 : en:(07)01:04:27:280
01:15:12.631 : en:(08)01:15:12:631
01:25:14.649 : en:(09)01:25:14:649BDInfo Report
DISC INFO:Disc Title: ROBINSONCRUSOE
Disc Size: 17 065 135 463 bytes
Protection: AACS
BD-Java: Yes
Extras: 50Hz Content
BDInfo: 0.5.8PLAYLIST REPORT:Name: 00003.MPLS
Length: 1:29:37.791 (h:m:s.ms)
Size: 15 570 843 648 bytes
Total Bitrate: 23,16 MbpsVIDEO:Codec Bitrate Deion
----- ------- -----------
MPEG-4 AVC Video 17878 kbps 1080p / 24 fps / 16:9 / High Profile 4.0AUDIO:Codec Language Bitrate Deion
----- -------- ------- -----------
DTS-HD Master Audio Russian 4005 kbps 5.1 / 48 kHz / 4005 kbps / 24-bit (DTS Core: 5.1 / 48 kHz / 1509 kbps / 24-bit)

Скриншот c названием фильма

Скриншоты

Трейлер

Яндекс.Метрика
Рейтинг@Mail.ru