Сплин - Ключ к шифру (2016) [AAC|WEB-DL|256 кб/с]<Rock>

 

Создавать темы 23-Сен-2016 08:04

- Сплин - Ключ к шифру (2016) - Год: 2016
Жанр: Rock
Продолжительность: 00:53:59
Источник: itunes
Кодек: AAC
Битрейт: 256 Kbps
Тип битрейта: VBR
Треклист:
01. Медный грош
02. Пирамиды
03. Нам, мудрецам
04. Храм
05. Окраины
06. Кит
07. Она была так прекрасна
08. Джа играет джаз
09. Реквием
10. Земля уходит из-под ног
11. Тревога
12. Небесный хор
13. Путь на восток
14. День за днём
15. Череп и кости

Mediainfo&#58;

Общее
Полное имя                               : D:\Сплин - 2016 - Ключ к шифру\01 Медный грош.m4a
Формат                                   : MPEG-4
Профиль формата                          : Apple audio with iTunes info
Идентификатор кодека                     : M4A
Размер файла                             : 3,46 Мбайт
Продолжительность                        : 1 м. 25 с.
Режим общего битрейта                    : Переменный
Общий поток                              : 338 Кбит/сек
Альбом                                   : Ключ к шифру
Альбом/Исполнитель                       : Сплин
Часть/Положение                          : 1
Часть/Всего                              : 1
Трек                                     : Медный грош
Трек/Положение                           : 1
Трек/Всего                               : 15
Исполнитель                              : Сплин
Композитор                               : Александр Васильев
Жанр                                     : Indie Rock
Дата записи                              : 2016
Дата кодирования                         : UTC 2007-01-04 16:54:43
Дата пометки                             : UTC 2016-09-22 23:37:45
Обложка                                  : Yes
Рейтинг                                  : None
Аудио
Идентификатор                            : 1
Формат                                   : AAC
Формат/Информация                        : Advanced Audio Codec
Профиль формата                          : LC
Идентификатор кодека                     : 40
Продолжительность                        : 1 м. 25 с.
Вид битрейта                             : Переменный
Битрейт                                  : 288 Кбит/сек
Номинальный битрейт                      : 256 Кбит/сек
Максимальный битрейт                     : 305 Кбит/сек
Каналы                                   : 2 канала
Расположение каналов                     : Front: L R
Частота                                  : 44,1 КГц
Метод сжатия                             : С потерями
Размер потока                            : 2,91 Мбайт (84%)
Язык                                     : English
Дата кодирования                         : UTC 2007-01-04 16:54:43
Дата пометки                             : UTC 2016-09-22 23:37:45
linf                                     : 
Общее
Полное имя                               : D:\Сплин - 2016 - Ключ к шифру\02 Пирамиды.m4a
Формат                                   : MPEG-4
Профиль формата                          : Apple audio with iTunes info
Идентификатор кодека                     : M4A
Размер файла                             : 9,22 Мбайт
Продолжительность                        : 4 м. 21 с.
Режим общего битрейта                    : Переменный
Общий поток                              : 296 Кбит/сек
Альбом                                   : Ключ к шифру
Альбом/Исполнитель                       : Сплин
Часть/Положение                          : 1
Часть/Всего                              : 1
Трек                                     : Пирамиды
Трек/Положение                           : 2
Трек/Всего                               : 15
Исполнитель                              : Сплин
Композитор                               : Александр Васильев
Жанр                                     : Indie Rock
Дата записи                              : 2016
Дата кодирования                         : UTC 2032-07-12 09:07:31
Дата пометки                             : UTC 2016-09-22 23:38:45
Обложка                                  : Yes
Рейтинг                                  : None
Аудио
Идентификатор                            : 1
Формат                                   : AAC
Формат/Информация                        : Advanced Audio Codec
Профиль формата                          : LC
Идентификатор кодека                     : 40
Продолжительность                        : 4 м. 21 с.
Вид битрейта                             : Переменный
Битрейт                                  : 278 Кбит/сек
Номинальный битрейт                      : 256 Кбит/сек
Максимальный битрейт                     : 304 Кбит/сек
Каналы                                   : 2 канала
Расположение каналов                     : Front: L R
Частота                                  : 44,1 КГц
Метод сжатия                             : С потерями
Размер потока                            : 8,64 Мбайт (94%)
Язык                                     : English
Дата кодирования                         : UTC 2032-07-12 09:07:31
Дата пометки                             : UTC 2016-09-22 23:38:45
linf                                     : 
Общее
Полное имя                               : D:\Сплин - 2016 - Ключ к шифру\03 Нам, мудрецам.m4a
Формат                                   : MPEG-4
Профиль формата                          : Apple audio with iTunes info
Идентификатор кодека                     : M4A
Размер файла                             : 10,5 Мбайт
Продолжительность                        : 4 м. 57 с.
Режим общего битрейта                    : Переменный
Общий поток                              : 295 Кбит/сек
Альбом                                   : Ключ к шифру
Альбом/Исполнитель                       : Сплин
Часть/Положение                          : 1
Часть/Всего                              : 1
Трек                                     : Нам, мудрецам
Трек/Положение                           : 3
Трек/Всего                               : 15
Исполнитель                              : Сплин
Композитор                               : Александр Васильев
Жанр                                     : Indie Rock
Дата записи                              : 2016
Дата пометки                             : UTC 2016-09-22 23:39:08
Обложка                                  : Yes
Рейтинг                                  : None
Аудио
Идентификатор                            : 1
Формат                                   : AAC
Формат/Информация                        : Advanced Audio Codec
Профиль формата                          : LC
Идентификатор кодека                     : 40
Продолжительность                        : 4 м. 57 с.
Вид битрейта                             : Переменный
Битрейт                                  : 279 Кбит/сек
Номинальный битрейт                      : 256 Кбит/сек
Максимальный битрейт                     : 313 Кбит/сек
Каналы                                   : 2 канала
Расположение каналов                     : Front: L R
Частота                                  : 44,1 КГц
Метод сжатия                             : С потерями
Размер потока                            : 9,88 Мбайт (94%)
Язык                                     : English
Дата пометки                             : UTC 2016-09-22 23:39:08
linf                                     : 
Общее
Полное имя                               : D:\Сплин - 2016 - Ключ к шифру\04 Храм.m4a
Формат                                   : MPEG-4
Профиль формата                          : Apple audio with iTunes info
Идентификатор кодека                     : M4A
Размер файла                             : 5,72 Мбайт
Продолжительность                        : 2 м. 45 с.
Режим общего битрейта                    : Переменный
Общий поток                              : 290 Кбит/сек
Альбом                                   : Ключ к шифру
Альбом/Исполнитель                       : Сплин
Часть/Положение                          : 1
Часть/Всего                              : 1
Трек                                     : Храм
Трек/Положение                           : 4
Трек/Всего                               : 15
Исполнитель                              : Сплин
Композитор                               : Александр Васильев
Жанр                                     : Indie Rock
Дата записи                              : 2016
Дата пометки                             : UTC 2016-09-22 23:38:34
Обложка                                  : Yes
Рейтинг                                  : None
Аудио
Идентификатор                            : 1
Формат                                   : AAC
Формат/Информация                        : Advanced Audio Codec
Профиль формата                          : LC
Идентификатор кодека                     : 40
Продолжительность                        : 2 м. 45 с.
Вид битрейта                             : Переменный
Битрейт                                  : 256 Кбит/сек
Максимальный битрейт                     : 281 Кбит/сек
Каналы                                   : 2 канала
Расположение каналов                     : Front: L R
Частота                                  : 44,1 КГц
Метод сжатия                             : С потерями
Размер потока                            : 5,16 Мбайт (90%)
Язык                                     : English
Дата пометки                             : UTC 2016-09-22 23:38:34
linf                                     : 
Общее
Полное имя                               : D:\Сплин - 2016 - Ключ к шифру\05 Окраины.m4a
Формат                                   : MPEG-4
Профиль формата                          : Apple audio with iTunes info
Идентификатор кодека                     : M4A
Размер файла                             : 12,4 Мбайт
Продолжительность                        : 6 м. 0 с.
Режим общего битрейта                    : Переменный
Общий поток                              : 288 Кбит/сек
Альбом                                   : Ключ к шифру
Альбом/Исполнитель                       : Сплин
Часть/Положение                          : 1
Часть/Всего                              : 1
Трек                                     : Окраины
Трек/Положение                           : 5
Трек/Всего                               : 15
Исполнитель                              : Сплин
Композитор                               : Александр Васильев
Жанр                                     : Indie Rock
Дата записи                              : 2016
Дата кодирования                         : UTC 1980-06-06 10:13:39
Дата пометки                             : UTC 2016-09-22 23:40:04
Обложка                                  : Yes
Рейтинг                                  : None
Аудио
Идентификатор                            : 1
Формат                                   : AAC
Формат/Информация                        : Advanced Audio Codec
Профиль формата                          : LC
Идентификатор кодека                     : 40
Продолжительность                        : 6 м. 0 с.
Вид битрейта                             : Переменный
Битрейт                                  : 274 Кбит/сек
Номинальный битрейт                      : 256 Кбит/сек
Максимальный битрейт                     : 345 Кбит/сек
Каналы                                   : 2 канала
Расположение каналов                     : Front: L R
Частота                                  : 44,1 КГц
Метод сжатия                             : С потерями
Размер потока                            : 11,8 Мбайт (95%)
Язык                                     : English
Дата кодирования                         : UTC 1980-06-06 10:13:39
Дата пометки                             : UTC 2016-09-22 23:40:04
linf                                     : 
Общее
Полное имя                               : D:\Сплин - 2016 - Ключ к шифру\06 Кит.m4a
Формат                                   : MPEG-4
Профиль формата                          : Apple audio with iTunes info
Идентификатор кодека                     : M4A
Размер файла                             : 7,17 Мбайт
Продолжительность                        : 3 м. 14 с.
Режим общего битрейта                    : Переменный
Общий поток                              : 309 Кбит/сек
Альбом                                   : Ключ к шифру
Альбом/Исполнитель                       : Сплин
Часть/Положение                          : 1
Часть/Всего                              : 1
Трек                                     : Кит
Трек/Положение                           : 6
Трек/Всего                               : 15
Исполнитель                              : Сплин
Композитор                               : Александр Васильев
Жанр                                     : Indie Rock
Дата записи                              : 2016
Дата кодирования                         : UTC 2000-08-19 07:03:47
Дата пометки                             : UTC 2016-09-22 23:39:44
Обложка                                  : Yes
Рейтинг                                  : None
Аудио
Идентификатор                            : 1
Формат                                   : AAC
Формат/Информация                        : Advanced Audio Codec
Профиль формата                          : LC
Идентификатор кодека                     : 40
Продолжительность                        : 3 м. 14 с.
Вид битрейта                             : Переменный
Битрейт                                  : 288 Кбит/сек
Номинальный битрейт                      : 256 Кбит/сек
Максимальный битрейт                     : 317 Кбит/сек
Каналы                                   : 2 канала
Расположение каналов                     : Front: L R
Частота                                  : 44,1 КГц
Метод сжатия                             : С потерями
Размер потока                            : 6,60 Мбайт (92%)
Язык                                     : English
Дата кодирования                         : UTC 2000-08-19 07:03:47
Дата пометки                             : UTC 2016-09-22 23:39:44
linf                                     : 
Общее
Полное имя                               : D:\Сплин - 2016 - Ключ к шифру\07 Она была так прекрасна.m4a
Формат                                   : MPEG-4
Профиль формата                          : Apple audio with iTunes info
Идентификатор кодека                     : M4A
Размер файла                             : 6,01 Мбайт
Продолжительность                        : 2 м. 47 с.
Режим общего битрейта                    : Переменный
Общий поток                              : 302 Кбит/сек
Альбом                                   : Ключ к шифру
Альбом/Исполнитель                       : Сплин
Часть/Положение                          : 1
Часть/Всего                              : 1
Трек                                     : Она была так прекрасна
Трек/Положение                           : 7
Трек/Всего                               : 15
Исполнитель                              : Сплин
Композитор                               : Александр Васильев
Жанр                                     : Indie Rock
Дата записи                              : 2016
Дата кодирования                         : UTC 2018-09-16 10:32:51
Дата пометки                             : UTC 2016-09-22 23:39:53
Обложка                                  : Yes
Рейтинг                                  : None
Аудио
Идентификатор                            : 1
Формат                                   : AAC
Формат/Информация                        : Advanced Audio Codec
Профиль формата                          : LC
Идентификатор кодека                     : 40
Продолжительность                        : 2 м. 47 с.
Вид битрейта                             : Переменный
Битрейт                                  : 273 Кбит/сек
Номинальный битрейт                      : 256 Кбит/сек
Максимальный битрейт                     : 301 Кбит/сек
Каналы                                   : 2 канала
Расположение каналов                     : Front: L R
Частота                                  : 44,1 КГц
Метод сжатия                             : С потерями
Размер потока                            : 5,45 Мбайт (91%)
Язык                                     : English
Дата кодирования                         : UTC 2018-09-16 10:32:51
Дата пометки                             : UTC 2016-09-22 23:39:53
linf                                     : 
Общее
Полное имя                               : D:\Сплин - 2016 - Ключ к шифру\08 Джа играет джаз.m4a
Формат                                   : MPEG-4
Профиль формата                          : Apple audio with iTunes info
Идентификатор кодека                     : M4A
Размер файла                             : 8,78 Мбайт
Продолжительность                        : 3 м. 53 с.
Режим общего битрейта                    : Переменный
Общий поток                              : 315 Кбит/сек
Альбом                                   : Ключ к шифру
Альбом/Исполнитель                       : Сплин
Часть/Положение                          : 1
Часть/Всего                              : 1
Трек                                     : Джа играет джаз
Трек/Положение                           : 8
Трек/Всего                               : 15
Исполнитель                              : Сплин
Композитор                               : Александр Васильев
Жанр                                     : Indie Rock
Дата записи                              : 2016
Дата пометки                             : UTC 2016-09-22 23:41:02
Обложка                                  : Yes
Рейтинг                                  : None
Аудио
Идентификатор                            : 1
Формат                                   : AAC
Формат/Информация                        : Advanced Audio Codec
Профиль формата                          : LC
Идентификатор кодека                     : 40
Продолжительность                        : 3 м. 53 с.
Вид битрейта                             : Переменный
Битрейт                                  : 295 Кбит/сек
Номинальный битрейт                      : 256 Кбит/сек
Максимальный битрейт                     : 313 Кбит/сек
Каналы                                   : 2 канала
Расположение каналов                     : Front: L R
Частота                                  : 44,1 КГц
Метод сжатия                             : С потерями
Размер потока                            : 8,20 Мбайт (93%)
Язык                                     : English
Дата пометки                             : UTC 2016-09-22 23:41:02
linf                                     : 
Общее
Полное имя                               : D:\Сплин - 2016 - Ключ к шифру\09 Реквием.m4a
Формат                                   : MPEG-4
Профиль формата                          : Apple audio with iTunes info
Идентификатор кодека                     : M4A
Размер файла                             : 7,86 Мбайт
Продолжительность                        : 3 м. 22 с.
Режим общего битрейта                    : Переменный
Общий поток                              : 326 Кбит/сек
Альбом                                   : Ключ к шифру
Альбом/Исполнитель                       : Сплин
Часть/Положение                          : 1
Часть/Всего                              : 1
Трек                                     : Реквием
Трек/Положение                           : 9
Трек/Всего                               : 15
Исполнитель                              : Сплин
Композитор                               : Александр Васильев
Жанр                                     : Indie Rock
Дата записи                              : 2016
Дата пометки                             : UTC 2016-09-22 23:41:04
Обложка                                  : Yes
Рейтинг                                  : None
Аудио
Идентификатор                            : 1
Формат                                   : AAC
Формат/Информация                        : Advanced Audio Codec
Профиль формата                          : LC
Идентификатор кодека                     : 40
Продолжительность                        : 3 м. 22 с.
Вид битрейта                             : Переменный
Битрейт                                  : 302 Кбит/сек
Номинальный битрейт                      : 256 Кбит/сек
Максимальный битрейт                     : 316 Кбит/сек
Каналы                                   : 2 канала
Расположение каналов                     : Front: L R
Частота                                  : 44,1 КГц
Метод сжатия                             : С потерями
Размер потока                            : 7,29 Мбайт (93%)
Язык                                     : English
Дата пометки                             : UTC 2016-09-22 23:41:04
linf                                     : 
Общее
Полное имя                               : D:\Сплин - 2016 - Ключ к шифру\10 Земля уходит из-под ног.m4a
Формат                                   : MPEG-4
Профиль формата                          : Apple audio with iTunes info
Идентификатор кодека                     : M4A
Размер файла                             : 8,36 Мбайт
Продолжительность                        : 3 м. 50 с.
Режим общего битрейта                    : Переменный
Общий поток                              : 304 Кбит/сек
Альбом                                   : Ключ к шифру
Альбом/Исполнитель                       : Сплин
Часть/Положение                          : 1
Часть/Всего                              : 1
Трек                                     : Земля уходит из-под ног
Трек/Положение                           : 10
Трек/Всего                               : 15
Исполнитель                              : Сплин
Композитор                               : Александр Васильев
Жанр                                     : Indie Rock
Дата записи                              : 2016
Дата пометки                             : UTC 2016-09-22 23:40:56
Обложка                                  : Yes
Рейтинг                                  : None
Аудио
Идентификатор                            : 1
Формат                                   : AAC
Формат/Информация                        : Advanced Audio Codec
Профиль формата                          : LC
Идентификатор кодека                     : 40
Продолжительность                        : 3 м. 50 с.
Вид битрейта                             : Переменный
Битрейт                                  : 288 Кбит/сек
Номинальный битрейт                      : 256 Кбит/сек
Максимальный битрейт                     : 304 Кбит/сек
Каналы                                   : 2 канала
Расположение каналов                     : Front: L R
Частота                                  : 44,1 КГц
Метод сжатия                             : С потерями
Размер потока                            : 7,79 Мбайт (93%)
Язык                                     : English
Дата пометки                             : UTC 2016-09-22 23:40:56
linf                                     : 
Общее
Полное имя                               : D:\Сплин - 2016 - Ключ к шифру\11 Тревога.m4a
Формат                                   : MPEG-4
Профиль формата                          : Apple audio with iTunes info
Идентификатор кодека                     : M4A
Размер файла                             : 7,08 Мбайт
Продолжительность                        : 3 м. 21 с.
Режим общего битрейта                    : Переменный
Общий поток                              : 295 Кбит/сек
Альбом                                   : Ключ к шифру
Альбом/Исполнитель                       : Сплин
Часть/Положение                          : 1
Часть/Всего                              : 1
Трек                                     : Тревога
Трек/Положение                           : 11
Трек/Всего                               : 15
Исполнитель                              : Сплин
Композитор                               : Александр Васильев
Жанр                                     : Indie Rock
Дата записи                              : 2016
Дата кодирования                         : UTC 1975-08-25 13:23:31
Дата пометки                             : UTC 2016-09-22 23:41:40
Обложка                                  : Yes
Рейтинг                                  : None
Аудио
Идентификатор                            : 1
Формат                                   : AAC
Формат/Информация                        : Advanced Audio Codec
Профиль формата                          : LC
Идентификатор кодека                     : 40
Продолжительность                        : 3 м. 21 с.
Вид битрейта                             : Переменный
Битрейт                                  : 271 Кбит/сек
Номинальный битрейт                      : 256 Кбит/сек
Максимальный битрейт                     : 286 Кбит/сек
Каналы                                   : 2 канала
Расположение каналов                     : Front: L R
Частота                                  : 44,1 КГц
Метод сжатия                             : С потерями
Размер потока                            : 6,51 Мбайт (92%)
Язык                                     : English
Дата кодирования                         : UTC 1975-08-25 13:23:31
Дата пометки                             : UTC 2016-09-22 23:41:40
linf                                     : 
Общее
Полное имя                               : D:\Сплин - 2016 - Ключ к шифру\12 Небесный хор.m4a
Формат                                   : MPEG-4
Профиль формата                          : Apple audio with iTunes info
Идентификатор кодека                     : M4A
Размер файла                             : 8,86 Мбайт
Продолжительность                        : 4 м. 14 с.
Режим общего битрейта                    : Переменный
Общий поток                              : 292 Кбит/сек
Альбом                                   : Ключ к шифру
Альбом/Исполнитель                       : Сплин
Часть/Положение                          : 1
Часть/Всего                              : 1
Трек                                     : Небесный хор
Трек/Положение                           : 12
Трек/Всего                               : 15
Исполнитель                              : Сплин
Композитор                               : Александр Васильев
Жанр                                     : Indie Rock
Дата записи                              : 2016
Дата кодирования                         : UTC 2001-03-02 05:36:19
Дата пометки                             : UTC 2016-09-22 23:42:19
Обложка                                  : Yes
Рейтинг                                  : None
Аудио
Идентификатор                            : 1
Формат                                   : AAC
Формат/Информация                        : Advanced Audio Codec
Профиль формата                          : LC
Идентификатор кодека                     : 40
Продолжительность                        : 4 м. 14 с.
Вид битрейта                             : Переменный
Битрейт                                  : 273 Кбит/сек
Номинальный битрейт                      : 256 Кбит/сек
Максимальный битрейт                     : 309 Кбит/сек
Каналы                                   : 2 канала
Расположение каналов                     : Front: L R
Частота                                  : 44,1 КГц
Метод сжатия                             : С потерями
Размер потока                            : 8,28 Мбайт (93%)
Язык                                     : English
Дата кодирования                         : UTC 2001-03-02 05:36:19
Дата пометки                             : UTC 2016-09-22 23:42:19
linf                                     : 
Общее
Полное имя                               : D:\Сплин - 2016 - Ключ к шифру\13 Путь на восток.m4a
Формат                                   : MPEG-4
Профиль формата                          : Apple audio with iTunes info
Идентификатор кодека                     : M4A
Размер файла                             : 6,72 Мбайт
Продолжительность                        : 3 м. 9 с.
Режим общего битрейта                    : Переменный
Общий поток                              : 298 Кбит/сек
Альбом                                   : Ключ к шифру
Альбом/Исполнитель                       : Сплин
Часть/Положение                          : 1
Часть/Всего                              : 1
Трек                                     : Путь на восток
Трек/Положение                           : 13
Трек/Всего                               : 15
Исполнитель                              : Сплин
Композитор                               : Александр Васильев
Жанр                                     : Indie Rock
Дата записи                              : 2016
Дата кодирования                         : UTC 2022-06-07 11:06:59
Дата пометки                             : UTC 2016-09-22 23:41:56
Обложка                                  : Yes
Рейтинг                                  : None
Аудио
Идентификатор                            : 1
Формат                                   : AAC
Формат/Информация                        : Advanced Audio Codec
Профиль формата                          : LC
Идентификатор кодека                     : 40
Продолжительность                        : 3 м. 9 с.
Вид битрейта                             : Переменный
Битрейт                                  : 273 Кбит/сек
Номинальный битрейт                      : 256 Кбит/сек
Максимальный битрейт                     : 309 Кбит/сек
Каналы                                   : 2 канала
Расположение каналов                     : Front: L R
Частота                                  : 44,1 КГц
Метод сжатия                             : С потерями
Размер потока                            : 6,16 Мбайт (92%)
Язык                                     : English
Дата кодирования                         : UTC 2022-06-07 11:06:59
Дата пометки                             : UTC 2016-09-22 23:41:56
linf                                     : 
Общее
Полное имя                               : D:\Сплин - 2016 - Ключ к шифру\14 День за днём.m4a
Формат                                   : MPEG-4
Профиль формата                          : Apple audio with iTunes info
Идентификатор кодека                     : M4A
Размер файла                             : 7,95 Мбайт
Продолжительность                        : 3 м. 40 с.
Режим общего битрейта                    : Переменный
Общий поток                              : 303 Кбит/сек
Альбом                                   : Ключ к шифру
Альбом/Исполнитель                       : Сплин
Часть/Положение                          : 1
Часть/Всего                              : 1
Трек                                     : День за днём
Трек/Положение                           : 14
Трек/Всего                               : 15
Исполнитель                              : Сплин
Композитор                               : Александр Васильев
Жанр                                     : Indie Rock
Дата записи                              : 2016
Дата пометки                             : UTC 2016-09-22 23:42:33
Обложка                                  : Yes
Рейтинг                                  : None
Аудио
Идентификатор                            : 1
Формат                                   : AAC
Формат/Информация                        : Advanced Audio Codec
Профиль формата                          : LC
Идентификатор кодека                     : 40
Продолжительность                        : 3 м. 40 с.
Вид битрейта                             : Переменный
Битрейт                                  : 281 Кбит/сек
Номинальный битрейт                      : 256 Кбит/сек
Максимальный битрейт                     : 298 Кбит/сек
Каналы                                   : 2 канала
Расположение каналов                     : Front: L R
Частота                                  : 44,1 КГц
Метод сжатия                             : С потерями
Размер потока                            : 7,38 Мбайт (93%)
Язык                                     : English
Дата пометки                             : UTC 2016-09-22 23:42:33
linf                                     : 
Общее
Полное имя                               : D:\Сплин - 2016 - Ключ к шифру\15 Череп и кости.m4a
Формат                                   : MPEG-4
Профиль формата                          : Apple audio with iTunes info
Идентификатор кодека                     : M4A
Размер файла                             : 6,82 Мбайт
Продолжительность                        : 2 м. 55 с.
Режим общего битрейта                    : Переменный
Общий поток                              : 325 Кбит/сек
Альбом                                   : Ключ к шифру
Альбом/Исполнитель                       : Сплин
Часть/Положение                          : 1
Часть/Всего                              : 1
Трек                                     : Череп и кости
Трек/Положение                           : 15
Трек/Всего                               : 15
Исполнитель                              : Сплин
Композитор                               : Александр Васильев
Жанр                                     : Indie Rock
Дата записи                              : 2016
Дата пометки                             : UTC 2016-09-22 23:42:40
Обложка                                  : Yes
Рейтинг                                  : None
Аудио
Идентификатор                            : 1
Формат                                   : AAC
Формат/Информация                        : Advanced Audio Codec
Профиль формата                          : LC
Идентификатор кодека                     : 40
Продолжительность                        : 2 м. 55 с.
Вид битрейта                             : Переменный
Битрейт                                  : 298 Кбит/сек
Номинальный битрейт                      : 256 Кбит/сек
Максимальный битрейт                     : 317 Кбит/сек
Каналы                                   : 2 канала
Расположение каналов                     : Front: L R
Частота                                  : 44,1 КГц
Метод сжатия                             : С потерями
Размер потока                            : 6,25 Мбайт (92%)
Язык                                     : English
Дата пометки                             : UTC 2016-09-22 23:42:40
linf                                     : 
Время раздачи: 24/7 (круглосуточно) (до появления первых 3-5 скачавших)
Яндекс.Метрика
Рейтинг@Mail.ru