(Melodic Power Metal) Traumer - Avalon - 2016 [FLAC, image+.cue, lossless]

 

Создавать темы 21-Сен-2016 03:24

-Traumer - Avalon-- Год издания: 2016
Страна: Brazil
Жанр: Melodic Power Metal
Продолжительность: 01:12:53-Лейбл издания: Victor Entertainment
Тип альбома: Master
Страна-выпуска диска: November 11th, 2016, Japan
Номер по каталогу: VICP-65412
Формат: FLAC
Битрейт аудио: lossless
Тип рипа: image+.cue
Наличие сканов в содержимом раздачи: да-

Трэклист

01. Tempus Est
02. Avalon
03. Forever Starts Tomorrow
04. TraumeR
05. Changes
06. Let You Go
07. Angel of the Night
08. The Song of Broken Hearts
09. Don't Believe Their Lies
10. Symphony
11. Our Spirit Never Dies
12. Father Time (Stratovarius cover) (Bonus Track)
13. Eagle Fly Free (Helloween cover) (Bonus Track)
14. Carry On (Angra cover) (Bonus Track)
-

Лог создания рипа

Exact Audio Copy V1.2 from 12. August 2016EAC extraction logfile from 15. September 2016, 18:03Traumer / Avalon (Japan)Used drive : ATAPI iHAS122 W Adapter: 2 ID: 0Read mode : Secure
Utilize accurate stream : Yes
Defeat audio cache : Yes
Make use of C2 pointers : NoRead offset correction : 48
Overread into Lead-In and Lead-Out : No
Fill up missing offset samples with silence : Yes
Delete leading and trailing silent blocks : No
Null samples used in CRC calculations : Yes
Used interface : Installed external ASPI interfaceUsed output format : User Defined Encoder
Selected bitrate : 1024 kBit/s
Quality : High
Add ID3 tag : No
Command line compressor : C:\Program Files\FLAC\flac.exe
Additional command line options : -V -8 -T "Date=%year%" -T "Genre=%genre%" -T"COMMENT=Ripped by Ilijan" -8 -V %source%TOC of the extracted CD Track | Start | Length | Start sector | End sector
---------------------------------------------------------
1 | 0:00.00 | 2:19.60 | 0 | 10484
2 | 2:19.60 | 4:29.10 | 10485 | 30669
3 | 6:48.70 | 5:14.42 | 30670 | 54261
4 | 12:03.37 | 4:40.37 | 54262 | 75298
5 | 16:43.74 | 6:25.32 | 75299 | 104205
6 | 23:09.31 | 4:50.70 | 104206 | 126025
7 | 28:00.26 | 6:36.08 | 126026 | 155733
8 | 34:36.34 | 6:39.36 | 155734 | 185694
9 | 41:15.70 | 5:42.55 | 185695 | 211399
10 | 46:58.50 | 3:30.60 | 211400 | 227209
11 | 50:29.35 | 7:16.07 | 227210 | 259916
12 | 57:45.42 | 4:52.60 | 259917 | 281876
13 | 62:38.27 | 5:08.68 | 281877 | 305044
14 | 67:47.20 | 5:06.10 | 305045 | 328004Range status and errorsSelected range Filename D:\ilко\Traumer - Avalon (Japan).wav Peak level 99.4 %
Extraction speed 4.6 X
Range quality 100.0 %
Test CRC 54D5809D
Copy CRC 54D5809D
Copy OKNo errors occurredAccurateRip summaryTrack 1 not present in database
Track 2 not present in database
Track 3 not present in database
Track 4 not present in database
Track 5 not present in database
Track 6 not present in database
Track 7 not present in database
Track 8 not present in database
Track 9 not present in database
Track 10 not present in database
Track 11 not present in database
Track 12 not present in database
Track 13 not present in database
Track 14 not present in databaseNone of the tracks are present in the AccurateRip databaseEnd of status report---- CUETools DB Plugin V2.1.6[CTDB TOCID: x2pUOf85QX7IA_9sV.P36rb0Wjw-] disk not present in database
Submit result: x2pUOf85QX7IA_9sV.P36rb0Wjw- has been uploaded==== Log checksum 92F9B8AA5CB04C9FAD0FDBF1614566372E64881FC46B761356991FF996CF0312 ====
-

Индексная карта (non-compilant .cue)

REM GENRE Melodic Power Metal
REM DATE 2016
REM COMMENT 2016, Japan, First Press, DR6
PERFORMER "Traumer"
TITLE "Avalon"
FILE "Traumer - Avalon.flac" WAVE
TRACK 01 AUDIO
TITLE "Tempus Est"
INDEX 01 00:00:00
TRACK 02 AUDIO
TITLE "Avalon"
INDEX 01 02:19:60
TRACK 03 AUDIO
TITLE "Forever Starts Tomorow"
INDEX 00 06:48:41
INDEX 01 06:48:70
TRACK 04 AUDIO
TITLE "Traumer"
INDEX 00 12:03:07
INDEX 01 12:03:37
TRACK 05 AUDIO
TITLE "Changes"
INDEX 00 16:43:45
INDEX 01 16:43:74
TRACK 06 AUDIO
TITLE "Let You Go"
INDEX 00 23:09:02
INDEX 01 23:09:31
TRACK 07 AUDIO
TITLE "Angel Of The Night"
INDEX 00 27:59:72
INDEX 01 28:00:26
TRACK 08 AUDIO
TITLE "The Song Of Broken Hearts"
INDEX 00 34:36:05
INDEX 01 34:36:34
TRACK 09 AUDIO
TITLE "Don't Believe Their Lies"
INDEX 00 41:15:40
INDEX 01 41:15:70
TRACK 10 AUDIO
TITLE "Symphony"
INDEX 00 46:58:20
INDEX 01 46:58:50
TRACK 11 AUDIO
TITLE "Our Spirit Never Dies"
INDEX 00 50:29:06
INDEX 01 50:29:35
TRACK 12 AUDIO
TITLE "Father Time (Stratovarius Cover) (Bonus Track)"
INDEX 00 57:45:12
INDEX 01 57:45:42
TRACK 13 AUDIO
TITLE "Eagle Fly Free (Helloween Cover) (Bonus Track)"
INDEX 00 62:37:73
INDEX 01 62:38:27
TRACK 14 AUDIO
TITLE "Carry On (Angra Cover) (Bonus Track)"
INDEX 00 67:46:67
INDEX 01 67:47:20
-

Скриншот спектра частот

--
Яндекс.Метрика
Рейтинг@Mail.ru