Metallica - Hardwired [2016 г.] ( Hard Rock/Heavy/Thrash Metal) [TVRip, 720p]

 

Создавать темы 21-Сен-2016 03:00

-Metallica - Hardwired-- Год выпуска: 2016 г.
Страна: USA
Жанр: : Hard Rock/Heavy/Thrash Metal
Продолжительность: 00:03:11-Качество видео: TVRip
Контейнер: MKV
Стандарт разрешения: 720p
Видео кодек: MPEG4 AVC
Аудио кодек: MP3
Видео: : 1 280 pixels x 536 pixels : 1 166 Kbps : 23.976 fps :
Аудио: : 320 Kbps : 2 channels : 44.1 KHz :-

Media Info

General
UniqueID : 196343411687551957152556358006874860327 (0x93B65D97A5FC856981679CA856386B27)
Complete name : G:\Metallica-Hardwired-DDC-720p-x264-2016-LOVERS\metallica-hardwired-ddc-720p-x264-2016-lovers.mkv
Format : Matroska
File size : 34.6 MiB
Duration : 3mn 11s
Overall bit rate : 1 516 Kbps
Encoded date : UTC 2016-09-17 09:08:24
Writing application : mkvmerge v9.4.0 ('Knurl') 32bit
Writing library : libebml v1.3.4 + libmatroska v1.4.5Video
ID : 1
Format : AVC
Format/Info : Advanced Video Codec
Format profile : [email protected]/* */
Format settings, CABAC : Yes
Format settings, ReFrames : 5 frames
Codec ID : V_MPEG4/ISO/AVC
Duration : 3mn 11s
Bit rate : 1 166 Kbps
Width : 1 280 pixels
Height : 536 pixels
Display aspect ratio : 2.35:1
Frame rate : 23.976 fps
Color space : YUV
Chroma subsampling : 4:2:0
Bit depth : 8 bits
Scan type : Progressive
Bits/(Pixel*Frame) : 0.071
Stream size : 26.6 MiB (77%)
Writing library : x264 core 148 r2705 3f5ed56
Encoding settings : cabac=1 / ref=5 / deblock=1:0:0 / analyse=0x3:0x113 / me=umh / subme=9 / psy=1 / psy_rd=1.00:0.00 / mixed_ref=1 / me_range=24 / chroma_me=1 / trellis=1 / 8x8dct=1 / cqm=0 / deadzone=21,11 / fast_pskip=1 / chroma_qp_offset=-2 / threads=6 / lookahead_threads=1 / sliced_threads=0 / nr=0 / decimate=1 / interlaced=0 / bluray_compat=0 / constrained_intra=0 / bframes=16 / b_pyramid=2 / b_adapt=1 / b_bias=0 / direct=1 / weightb=1 / open_gop=0 / weightp=2 / keyint=240 / keyint_min=23 / scenecut=40 / intra_refresh=0 / rc_lookahead=40 / rc=crf / mbtree=1 / crf=17.0 / qcomp=0.60 / qpmin=0 / qpmax=69 / qpstep=4 / vbv_maxrate=62500 / vbv_bufsize=78125 / crf_max=0.0 / nal_hrd=none / filler=0 / ip_ratio=1.40 / aq=1:1.00Audio
ID : 2
Format : MPEG Audio
Format version : Version 1
Format profile : Layer 3
Mode : Joint stereo
Mode extension : MS Stereo
Codec ID : A_MPEG/L3
Codec ID/Hint : MP3
Duration : 3mn 11s
Bit rate mode : Constant
Bit rate : 320 Kbps
Channel(s) : 2 channels
Sampling rate : 44.1 KHz
Compression mode : Lossy
Video delay : 31ms
Stream size : 7.30 MiB (21%)
Writing library : LAME3.99
Encoding settings : -m j -V 4 -q 0 -lowpass 20.5
-

Скриншоты

Яндекс.Метрика
Рейтинг@Mail.ru