Убийство / Assassination (Питер Р. Хант / Peter R. Hunt) [1987 г., боевик, HDRip] MVO [Петербург - 5 канал]

 

Создавать темы 20-Сен-2016 03:32

-Убийство / Assassination-- Производство: США
Год выпуска: 1987 г.
Жанр: боевик
Продолжительность: 01:28:14Мировая премьера: 9 января 1987
Перевод: Профессиональный (многоголосый, закадровый) [Петербург - 5 канал]
Режиссер: Питер Р. Хант / Peter R. Hunt-В ролях: Чарльз Бронсон, Джилл Айрленд, Стивен Эллиот, Джан Ган Бойд, Рэнди Брукс, Эрик Штерн, Майкл Ансара, Джеймс Стейли, Кэтрин Ли Скотт, Джеймс Эйксон-Описание: Происходят подозрительные убийства людей из ближайшего окружения жены президента. К ней на всякий случай приставляют особого охранника из службы безопасности, завязывающего с ней любовный роман, поскольку сам президент, кажется, импотент…-
Качество видео: HDRip
Контейнер: AVI
Видео кодек: XviD
Аудио кодек: AC3
Видео: 704x384 (1.83:1), 23.976 fps, XviD build 73 ~2016 kbps avg, 0.31 bit/pixel
Аудио: 48 kHz, AC3 Dolby Digital, 2/0 (L,R) ch, ~192 kbps
Cубтитры: отсутствуют

Media Info

Общее
Полное имя : D:\D\Убийство\Assassination.1987.HDRip.[pirat.ca].avi
Формат : AVI
Формат/Информация : Audio Video Interleave
Размер файла : 1,37 Гбайт
Продолжительность : 1 ч. 28 м.
Общий поток : 2218 Кбит/сек
Название фильма : Assassination_1987.HDRip
Программа кодирования : VirtualDubMod 1.5.10.3 (build 2550/release)Видео
Идентификатор : 0
Формат : MPEG-4 Visual
Профиль формата : Advanced [email protected]/* */
Параметр BVOP формата : 1
Параметр QPel формата : Нет
Параметр GMC формата : Без точки перехода
Параметр матрицы формата : Default (MPEG)
Идентификатор кодека : XVID
Идентификатор кодека/Подсказка : XviD
Продолжительность : 1 ч. 28 м.
Битрейт : 2017 Кбит/сек
Ширина : 704 пикселя
Высота : 384 пикселя
Соотношение сторон : 1,85:1
Частота кадров : 23,976 (23976/1000) кадра/сек
Цветовое пространство : YUV
Субдискретизация насыщенности : 4:2:0
Битовая глубина : 8 бит
Тип развёртки : Прогрессивная
Метод сжатия : С потерями
Бит/(Пиксели*Кадры) : 0.311
Размер потока : 1,24 Гбайт (91%)
Библиотека кодирования : XviD 73Аудио
Идентификатор : 1
Формат : AC-3
Формат/Информация : Audio Coding 3
Расширение режима : CM (complete main)
Параметр Endianness формата : Big
Идентификатор кодека : 2000
Продолжительность : 1 ч. 28 м.
Вид битрейта : Постоянный
Битрейт : 192 Кбит/сек
Каналы : 2 канала
Расположение каналов : Front: L R
Частота : 48,0 КГц
Частота кадров : 31,250 кадров/сек (1536 spf)
Метод сжатия : С потерями
Размер потока : 121 Мбайт (9%)
Выравнивание : Разделение по промежуткам
Продолжительность промежутка : 42 мс. (1,00 видеокадр)
Время предзагрузки промежутка : 500 мс.

Скриншот c названием фильма

Скриншоты

Трейлер

Яндекс.Метрика
Рейтинг@Mail.ru