[ Сегодня на трекере фрилич! Идет свободное скачивание без начисления Download ]

Приключения Тинтина: Тайна Единорога 3D / The Adventures of Tintin 3D (Стивен Спилберг / Steven Spielberg) [2011 г., мультфильм, боевик, приключения, BDRip 1080p] [Вертикальная анаморфная стереопара / Half OverUnder] Dub + Subs (Rus, Eng) + (Eng)

 

Создавать темы 05-Янв-2014 10:04

-Приключения Тинтина: Тайна Единорога 3D
The Adventures of Tintin 3D
«This year, discover how far adventure will take you.»
-- Производство: США, Новая Зеландия ( Columbia Pictures, Paramount Pictures)
Год выпуска: 2011 г.
Жанр: мультфильм, боевик, детектив, приключения, семейный
Продолжительность: 01:46:50
Мировая премьера: 23 октября 2011
Дата выхода DVD: 20 марта 2012, «Columbia/Sony»
Дата выхода Blu-Ray: 20 марта 2012, «Columbia/Sony»
Перевод: Профессиональный (полное дублирование)
Оригинальный аудиопоток: английский
Режиссер: Стивен Спилберг / Steven Spielberg-В ролях: Джейми Белл, Энди Серкис, Дэниэл Крэйг, Саймон Пегг, Ник Фрост, Дэниэл Мейс, Гад Эльмалех, Тоби Джонс, Джо Старр,Енн Рейтел
Роли дублировали: Филипп Бледный, Сергей Чихачев, Никита Прозоровский, Александр Новиков, Андрей Чубченко-Описание: Главный герой — молодой газетный репортёр Тинтин. Благодаря своей профессии он путешествует по всему миру и становится участником увлекательных приключений.- -Качество видео: BDRip 1080p
Контейнер: MKV
Формат 3D: Вертикальная анаморфная стереопара / Half OverUnder
Видео кодек: H.264
Аудио кодек: AC3
Видео: AVC, 1920x1080 (16:9), 23.976 fps, 9 093 Kbps (0.183 bit/pixel)
Аудио: Rus: AC-3, 48.0 KHz, 6 ch, 448 Kbps, CBR (дубляж)
Аудио #2: Eng: AC-3, 48.0 KHz, 6 ch, 640 Kbps, CBR (оригинал)
Cубтитры: русские, английские

Media Info

Общее
Уникальный идентификатор : 190013338479003464272710984915117460269 (0x8EF33CE32553DE979B0B27F2417CCB2D)
Полное имя : G:\TheAdventuresOfTintin.3D.2011.BD.Rip.mkv
Формат : Matroska
Версия формата : Version 2
Размер файла : 7,75 Гбайт
Продолжительность : 1 ч. 46 м.
Общий поток : 10,4 Мбит/сек
Название фильма : The Adventures of Tintin (3D) 2011 (Ash61)
Дата кодирования : UTC 2012-02-28 08:00:20
Программа кодирования : mkvmerge v3.4.0 ('Rapunzel') сборка от May 15 2010 09:38:20
Библиотека кодирования : libebml v0.8.0 + libmatroska v0.9.0
Видео
Идентификатор : 1
Формат : AVC
Формат/Информация : Advanced Video Codec
Профиль формата : [email protected]
Параметр CABAC формата : Да
Параметр ReFrames формата : 4 кадра
Идентификатор кодека : V_MPEG4/ISO/AVC
Продолжительность : 1 ч. 46 м.
Битрейт : 9093 Кбит/сек
Ширина : 1920 пикселей
Высота : 1080 пикселей
Соотношение сторон : 16:9
Режим частоты кадров : Постоянный
Частота кадров : 23,976 кадра/сек
Цветовое пространство : YUV
Субдискретизация насыщенности : 4:2:0
Битовая глубина : 8 бит
Тип развёртки : Прогрессивная
Бит/(Пиксели*Кадры) : 0.183
Размер потока : 6,79 Гбайт (88%)
Заголовок : BDrip by Ash61
Библиотека кодирования : x264 core 119 r2106 07efeb4
Настройки программы : cabac=1 / ref=4 / deblock=1:-3:-3 / analyse=0x3:0x113 / me=umh / subme=9 / psy=1 / psy_rd=1.00:0.15 / mixed_ref=1 / me_range=16 / chroma_me=1 / trellis=2 / 8x8dct=1 / cqm=0 / deadzone=21,11 / fast_pskip=1 / chroma_qp_offset=-3 / threads=3 / sliced_threads=0 / nr=0 / decimate=1 / interlaced=0 / bluray_compat=0 / constrained_intra=0 / bframes=6 / b_pyramid=2 / b_adapt=2 / b_bias=0 / direct=3 / weightb=1 / open_gop=0 / weightp=2 / keyint=250 / keyint_min=23 / scenecut=40 / intra_refresh=0 / rc_lookahead=60 / rc=crf / mbtree=1 / crf=17.0 / qcomp=0.70 / qpmin=0 / qpmax=69 / qpstep=4 / vbv_maxrate=40000 / vbv_bufsize=40000 / crf_max=0.0 / nal_hrd=none / ip_ratio=1.40 / aq=1:0.70
Default : Да
Forced : Нет
Аудио #1
Идентификатор : 2
Формат : AC-3
Формат/Информация : Audio Coding 3
Расширение режима : CM (complete main)
Параметр Endianness формата : Big
Идентификатор кодека : A_AC3
Продолжительность : 1 ч. 46 м.
Вид битрейта : Постоянный
Битрейт : 448 Кбит/сек
Каналы : 6 каналов
Расположение каналов : Front: L C R, Side: L R, LFE
Частота : 48,0 КГц
Битовая глубина : 16 бит
Метод сжатия : С потерями
Размер потока : 342 Мбайт (4%)
Заголовок : Дубляж
Язык : Russian
Default : Да
Forced : Нет
Аудио #2
Идентификатор : 3
Формат : AC-3
Формат/Информация : Audio Coding 3
Расширение режима : CM (complete main)
Параметр Endianness формата : Big
Идентификатор кодека : A_AC3
Продолжительность : 1 ч. 46 м.
Вид битрейта : Постоянный
Битрейт : 640 Кбит/сек
Каналы : 6 каналов
Расположение каналов : Front: L C R, Side: L R, LFE
Частота : 48,0 КГц
Битовая глубина : 16 бит
Метод сжатия : С потерями
Размер потока : 489 Мбайт (6%)
Язык : English
Default : Нет
Forced : Нет
Текст #1
Идентификатор : 4
Формат : UTF-8
Идентификатор кодека : S_TEXT/UTF8
Идентификатор кодека/Информация : UTF-8 Plain Text
Заголовок : Полные
Язык : Russian
Default : Нет
Forced : Нет
Текст #2
Идентификатор : 5
Формат : UTF-8
Идентификатор кодека : S_TEXT/UTF8
Идентификатор кодека/Информация : UTF-8 Plain Text
Заголовок : Full
Язык : English
Default : Нет
Forced : Нет
Меню
00:00:00.000 : :01
00:05:39.297 : :02
00:12:12.315 : :03
00:17:11.364 : :04
00:25:36.869 : :05
00:32:37.581 : :06
00:37:55.315 : :07
00:42:29.839 : :08
00:50:52.508 : :09
00:56:27.217 : :10
01:02:19.611 : :11
01:11:58.981 : :12
01:20:03.966 : :13
01:27:30.996 : :14
01:34:12.814 : :15
01:40:30.483 : :16

Скриншоты

Несколько скриншотов для оценки качества 3D

-Рип создан для большинства встроенных плееров 3DТV Full HD 1920х1080.
Проверенно на встроенных плеерах телевизоров Samsung C7000 и LG 42LW4500.
-

Создавать темы 05-Янв-2014 10:41 (спустя 37 минут)

Топик был перенесен из форума Зарубежные Мультфильмы (HD*Rip/LQ, DVDRip, SATRip, VHSRip) в форум Зарубежные Мультфильмы (3D)
[email protected]
Яндекс.Метрика
Рейтинг@Mail.ru