Гадкий я 2 / Despicable Me 2 (2013) BDRip 1080 | 60fps | Лицензия

 

Создавать темы 11-Сен-2016 20:34

Гадкий я 2 / Despicable Me 2Год выхода: 2013
Жанр: мультфильм, комедия, семейный
Режиссер: Пьер Соффин, Крис Рено
В ролях:
Стив Карелл, Кристен Уиг, Бенджамин Брэтт, Миранда Косгров, Расселл Брэнд, Кен Жонг, Стив Куган, Элси Фишер, Дэна Гайер, Мойзес Ариас
О фильме:
В то время как Грю, бывший суперзлодей, приспосабливается к семейной жизни и пытается честным трудом зарабатывать в сфере бизнеса, тайные лаборатории Арктики оказываются украденными. Анти-Злодейская лига решает, что она нуждается в помощи Грю и его новобранцев в расследовании.

Страна: США
Продолжительность: 01:37:59
Перевод: Дубляж (Лицензия)
Файл
Кодек: х264/V_MPEG4/ISO/AVC
Качество: BDRip 1080 60fps
Видео: 1920x1032 , 14000 Mb/s , 59.940 fps
Звук:
EN Audio #1 48.0 kHz , DTS , 3 840 kb/s
RUS Audio #2 48.0 kHz , DTS , 768 kb/s

MI

General
Unique ID                   : 205544239132779868722766994679114211922 (0x9AA26168B956DA8D899F0C700ABFA252)
Complete name               : F:Торент60fpsDespicable.Me.2.2013.1080p.BDRip.GTP.60FPS.mkv
Format                      : Matroska
Format version              : Version 4 / Version 2
File size                   : 12.6 GiB
Duration                    : 1 h 37 min
Overall bit rate            : 18.4 Mb/s
Movie name                  : Despicable.Me.2.2013.1080p.BDRip.GTP.60FPS
Encoded date                : UTC 2016-09-11 16:23:11
Writing application         : mkvmerge v9.4.0 ('Knurl') 64bit
Writing library             : libebml v1.3.4 + libmatroska v1.4.5
Video
ID                          : 1
Format                      : AVC
Format/Info                 : Advanced Video Codec
Format profile              : [email protected]
Format settings, CABAC      : Yes
Format settings, ReFrames   : 4 frames
Codec ID                    : V_MPEG4/ISO/AVC
Duration                    : 1 h 37 min
Bit rate                    : 14.0 Mb/s
Width                       : 1 920 pixels
Height                      : 1 032 pixels
Display aspect ratio        : 1.85:1
Frame rate mode             : Constant
Frame rate                  : 59.940 (59940/1000) FPS
Color space                 : YUV
Chroma subsampling          : 4:2:0
Bit depth                   : 8 bits
Scan type                   : Progressive
Bits/(Pixel*Frame)          : 0.118
Stream size                 : 9.49 GiB (75%)
Title                       : Despicable.Me.2.2013.1080p.BDRip.GTP.60FPS
Writing library             : x264 core 146 r2538 121396c
Encoding settings           : cabac=1 / ref=4 / deblock=1:0:0 / analyse=0x3:0x113 / me=umh / subme=9 / psy=1 / psy_rd=1.00:0.01 / mixed_ref=1 / me_range=32 / chroma_me=1 / trellis=2 / 8x8dct=1 / cqm=0 / deadzone=21,11 / fast_pskip=0 / chroma_qp_offset=-3 / threads=12 / lookahead_threads=3 / sliced_threads=0 / nr=0 / decimate=1 / interlaced=0 / bluray_compat=0 / constrained_intra=0 / bframes=16 / b_pyramid=2 / b_adapt=2 / b_bias=0 / direct=3 / weightb=1 / open_gop=0 / weightp=2 / keyint=600 / keyint_min=59 / scenecut=40 / intra_refresh=0 / rc_lookahead=40 / rc=2pass / mbtree=0 / bitrate=14000 / ratetol=1.0 / qcomp=0.60 / qpmin=0 / qpmax=69 / qpstep=4 / cplxblur=20.0 / qblur=0.5 / vbv_maxrate=14000 / vbv_bufsize=14000 / nal_hrd=none / filler=0 / ip_ratio=1.40 / pb_ratio=1.30 / aq=1:1.00
Language                    : English
Default                     : No
Forced                      : No
Audio #1
ID                          : 2
Format                      : DTS
Format/Info                 : Digital Theater Systems
Format profile              : MA / Core
Mode                        : 16
Format settings, Endianness : Big
Codec ID                    : A_DTS
Duration                    : 1 h 37 min
Bit rate mode               : Variable / Constant
Bit rate                    : 3 840 kb/s / 1 509 kb/s
Channel(s)                  : 6 channels
Channel positions           : Front: L C R, Side: L R, LFE
Sampling rate               : 48.0 kHz
Frame rate                  : 93.750 FPS (512 spf)
Bit depth                   : 24 bits
Compression mode            : Lossless / Lossy
Stream size                 : 2.58 GiB (20%)
Language                    : English
Default                     : No
Forced                      : No
Audio #2
ID                          : 3
Format                      : DTS
Format/Info                 : Digital Theater Systems
Mode                        : 16
Format settings, Endianness : Big
Codec ID                    : A_DTS
Duration                    : 1 h 37 min
Bit rate mode               : Constant
Bit rate                    : 768 kb/s
Channel(s)                  : 6 channels
Channel positions           : Front: L C R, Side: L R, LFE
Sampling rate               : 48.0 kHz
Frame rate                  : 93.750 FPS (512 spf)
Bit depth                   : 24 bits
Compression mode            : Lossy
Stream size                 : 538 MiB (4%)
Language                    : Russian
Default                     : Yes
Forced                      : Yes

Скриншоты:

Яндекс.Метрика
Рейтинг@Mail.ru