[ Сегодня на трекере фрилич! Идет свободное скачивание без начисления Download ]

Турбо / Turbo (Дэвид Сорен / David Soren) [2013 г., мультфильм, комедия, приключения, семейный, спорт, HDRip] Dub [Лицензия] «Двадцатый Век Фокс СНГ»

 

Создавать темы 05-Янв-2014 09:49

-Турбо
Turbo
«Быстрее, еще быстрее!»
-- Производство: США / DreamWorks Animation
Год выпуска: 2013 г.
Жанр: мультфильм, комедия, приключения, семейный, спорт
Продолжительность: 01:35:40
Мировая премьера: 17 июля 2013
Российская премьера: 18 июля 2013, «Двадцатый Век Фокс СНГ»
Дата выхода DVD: 21 ноября 2013, «Двадцатый Век Фокс СНГ»
Перевод: Профессиональный (полное дублирование) [Лицензия]
Режиссер: Дэвид Сорен / David Soren-Роли озвучили: Райан Рейнольдс (Ryan Reynolds), Пол Джаматти (Paul Giamatti), Майкл Пенья (Michael Peña), Снуп Догг (Snoop Dogg), Майя Рудольф (Maya Rudolph), Мишель Родригес (Michelle Rodriguez), Сэмюэл Л. Джексон (Samuel L. Jackson), Луис Гусман (Luis Guzman), Билл Хейдер (Bill Hader), Бен Шварц (Ben Schwartz), Ричард Дженкинс (Richard Jenkins), Кен Жонг (Ken Jeong), Марио Андретти (Mario Andretti), Майк Белл (Mike Bell (в титрах: Michael Patrick Bell)), Эйдан Эндрюс (Aidan Andrews), Аарон Бергер (Aaron Berger)- -Описание: Ничто так не раздражает темпераментную, мечтающую о скорости улитку с говорящим именем Турбо, как неспешная жизнь, медленные разговоры, заторможенные соседи. Пусть наш герой выглядит большим чудаком в этом вялом, неторопливом мире, пусть он идёт вопреки закону природы о «рождённом ползать», но если в сердце горит «пламенный мотор», а душа верит в чудо, оно просто не имеет права не произойти!- -Качество видео: HDRip
Контейнер: AVI
Видео кодек: XviD
Аудио кодек: AC3
Видео: 720x304 (2.35:1), 23.976 fps, XviD build 50 ~1786 kbps avg, 0.34 bit/pixel
Аудио: Rus: 48 kHz, AC3 Dolby Digital, 3/2 (L,C,R,l,r) + LFE ch, ~448 kbps - Дубляж [Лицензия]
Cубтитры: отсутствуют-

Media Info

Общее
Полное имя : D:\Turbo.2013.D.HDRip.avi
Формат : AVI
Формат/Информация : Audio Video Interleave
Размер файла : 1,50 Гбайт
Продолжительность : 1 ч. 35 м.
Общий поток : 2244 Кбит/сек
Программа кодирования : VirtualDubModRus 1.5.10.2 (build 2542/release)
Библиотека кодирования : VirtualDubMod build 2542/release
Видео
Идентификатор : 0
Формат : MPEG-4 Visual
Профиль формата : Advanced [email protected]
Параметр BVOP формата : 2
Параметр QPel формата : Нет
Параметр GMC формата : Без точки перехода
Параметр матрицы формата : Выборочная
Идентификатор кодека : XVID
Идентификатор кодека/Подсказка : XviD
Продолжительность : 1 ч. 35 м.
Битрейт : 1787 Кбит/сек
Ширина : 720 пикселей
Высота : 304 пикселя
Соотношение сторон : 2,35:1
Частота кадров : 23,976 кадра/сек
Цветовое пространство : YUV
Субдискретизация насыщенности : 4:2:0
Битовая глубина : 8 бит
Тип развёртки : Прогрессивная
Метод сжатия : С потерями
Бит/(Пиксели*Кадры) : 0.340
Размер потока : 1,19 Гбайт (80%)
Библиотека кодирования : XviD 1.2.1 (UTC 2008-12-04)
Аудио
Идентификатор : 1
Формат : AC-3
Формат/Информация : Audio Coding 3
Расширение режима : CM (complete main)
Параметр Endianness формата : Big
Идентификатор кодека : 2000
Продолжительность : 1 ч. 35 м.
Вид битрейта : Постоянный
Битрейт : 448 Кбит/сек
Каналы : 6 каналов
Расположение каналов : Front: L C R, Side: L R, LFE
Частота : 48,0 КГц
Битовая глубина : 16 бит
Метод сжатия : С потерями
Размер потока : 307 Мбайт (20%)
Выравнивание : Разделение по промежуткам
Продолжительность промежутка : 42 мс. (1,00 видеокадр)
Время предзагрузки промежутка : 500 мс.
-

Скриншоты

- -
Яндекс.Метрика
Рейтинг@Mail.ru