Angry Birds в кино / Angry Birds (Клэй Кэйтис / Clay Kaytis, Фергал Рейли / Fergal Reilly) [2016 г., мультфильм, боевик, комедия, семейный, BDRip] Dub [Лицензия]

 

Создавать темы 09-Сен-2016 03:32

-Angry Birds в кино / Angry Birds-- Производство: США, Финляндия
Год выпуска: 2016 г.
Жанр: мультфильм, боевик, комедия, семейный
Продолжительность: 01:37:13Мировая премьера: 1 мая 2016
Российская премьера: 12 мая 2016
Перевод: Профессиональный (полное дублирование) [Лицензия]-Режиссер: Клэй Кэйтис / Clay Kaytis, Фергал Рейли / Fergal Reilly-Роли дублировали: Александр Цекало, Тимур Родригез, Семен Слепаков, Елена Шульман, Сергей Бурунов-Описание: Фильм расскажет о том, как началось знаменитое противостояние птичек и свинок, персонажей популярной компьютерной игры, а также раскроет некоторые секреты любимых героев.- -Качество видео: BDRip
Контейнер: AVI
Видео кодек: XviD
Аудио кодек: AC3
Видео: 720x384 (1.85:1), 23.976 fps, 1683 Kbps (0.254 bit/pixel)
Аудио: AC3, 48.0 KHz, 6 ch, 448 kbps
Cубтитры: отсутствуют-

Media Info

Общее
Полное имя : C:\Users\Roman\Pictures\новинки\Angry.Birds.2016.BDRip.[pirat.ca].avi
Формат : AVI
Формат/Информация : Audio Video Interleave
Размер файла : 1,45 Гбайт
Продолжительность : 1 ч. 37 м.
Общий поток : 2140 Кбит/сек
Программа кодирования : VirtualDubMod 1.5.10.3 | www.virtualdub-fr.org || (build 2550/release)
Библиотека кодирования : VirtualDubMod build 2550/releaseВидео
Идентификатор : 0
Формат : MPEG-4 Visual
Профиль формата : Advanced [email protected]/* */
Параметр BVOP формата : 1
Параметр QPel формата : Нет
Параметр GMC формата : Без точки перехода
Параметр матрицы формата : Выборочная
Идентификатор кодека : XVID
Идентификатор кодека/Подсказка : XviD
Продолжительность : 1 ч. 37 м.
Битрейт : 1683 Кбит/сек
Ширина : 720 пикселей
Высота : 384 пикселя
Соотношение сторон : 1,85:1
Частота кадров : 23,976 кадра/сек
Цветовое пространство : YUV
Субдискретизация насыщенности : 4:2:0
Битовая глубина : 8 бит
Тип развёртки : Прогрессивная
Метод сжатия : С потерями
Бит/(Пиксели*Кадры) : 0.254
Размер потока : 1,14 Гбайт (79%)
Библиотека кодирования : XviD 73Аудио
Идентификатор : 1
Формат : AC-3
Формат/Информация : Audio Coding 3
Расширение режима : CM (complete main)
Параметр Endianness формата : Big
Идентификатор кодека : 2000
Продолжительность : 1 ч. 37 м.
Вид битрейта : Постоянный
Битрейт : 448 Кбит/сек
Каналы : 6 каналов
Расположение каналов : Front: L C R, Side: L R, LFE
Частота : 48,0 КГц
Битовая глубина : 16 бит
Метод сжатия : С потерями
Размер потока : 312 Мбайт (21%)
Выравнивание : Разделение по промежуткам
Продолжительность промежутка : 42 мс. (1,00 видеокадр)
Время предзагрузки промежутка : 500 мс.
-

Скриншот c названием фильма

-

Скриншоты

-
Яндекс.Метрика
Рейтинг@Mail.ru