Тайная жизнь домашних животных / The Secret Life of Pets (2016) HDTVRip-AVC | Line

 

Создавать темы 07-Сен-2016 17:37

Тайная жизнь домашних животных / The Secret Life of Pets (2016) HDTVRip-AVC | Line Название: Тайная жизнь домашних животных
Оригинальное название: The Secret Life of Pets
Год выхода: 2016
Жанр: Мультфильм, комедия, семейный
Режиссер: Ярроу Чейни, Крис Рено
В ролях: Луис С.К. (Max, озвучка), Эрик Стоунстрит (Duke, озвучка), Кевин Харт (Snowball, озвучка), Дженни Слейт (Gidget, озвучка), Элли Кемпер (Katie, озвучка), Альберт Брукс (Tiberius, озвучка), Лэйк Белл (Chloe, озвучка), Дэна Карви (Pops, озвучка), Хэннибал Бёресс (Buddy, озвучка), Бобби Мойнахан (Mel, озвучка), Крис Рено (Norman, озвучка), Стив Куган (Ozone / Reginald, озвучка)

О фильме:
Задумывались ли Вы когда-нибудь о том, чем занимается Ваш домашний любимец, когда Вы уходите по делам? Спит или дурачится со своими игрушками? Есть из своей мисочки или ждёт Вас у порога? Ха-ха! Да вот ещё! По правде, у зверья своя жизнь, в которой события накаляются не хуже, чем у людей. Терьер Макс всегда наслаждался любовью своих хозяев, пока в семье не появился Дюк. Это непородистая дворняга быстро завоевала признание домочадцев, потеснив Макса. Но соперничество продлилось недолго – стало известно, что дружелюбный на первый взгляд кролик формирует армию зверей, которых вышвырнули хозяева. Обиженные людьми животные планируют отомстить бывшим хозяевам, а также тому зверью, которое всё ещё преданно двуногим. Как поведут себя одомашненные животные? Их завербуют в ряды мстителей или они будут стоять за хозяев? Эта подлинная история о досуге животных заставит человека хорошенько подумать, прежде чем отказываться от питомца.


Страна: Япония, США
Студия: Dentsu, Fuji Television Network Inc., Illumination Entertainment, Universal Pictures
Продолжительность: 01:26:25
Перевод: Профессиональный (полное дублирование) | Line



Файл
Формат: MP4
Кодек: MPEG4 / AVC (H264)
Качество: HDTVRip - AVC
Видео: 1024x554, ~1900 Kbps
Звук: AAC, 2 ch, 128 Kbps
Субтитры: Корейские (на надписи)

Семпл

Медиаинфо

Общее
Полное имя : F:ЗавершенныеТайная жизнь домашних животных.mp4
Формат : MPEG-4
Профиль формата : Base Media / Version 2
Идентификатор кодека : mp42 (isom/iso2/avc1/mp41)
Размер файла : 1,23 Гбайт
Продолжительность : 1 ч. 26 м.
Режим общего битрейта : Переменный
Общий поток : 2037 Кбит/сек
Название фильма : The Secret Life of Pets (2016) - release by messafan for pb.wtf
Программа кодирования : HandBrake 6548svn 2014112401
Видео
Идентификатор : 1
Формат : AVC
Формат/Информация : Advanced Video Codec
Профиль формата : [email protected]
Параметр CABAC формата : Да
Параметр ReFrames формата : 4 кадра
Идентификатор кодека : avc1
Идентификатор кодека/Информация : Advanced Video Coding
Продолжительность : 1 ч. 26 м.
Битрейт : 1900 Кбит/сек
Ширина : 1024 пикселя
Высота : 554 пикселя
Соотношение сторон : 1,85:1
Соотношение сторон в оригинале : 1,85:1
Режим частоты кадров : Постоянный
Частота кадров : 29,970 (30000/1001) кадров/сек
Цветовое пространство : YUV
Субдискретизация насыщенности : 4:2:0
Битовая глубина : 8 бит
Тип развёртки : Прогрессивная
Бит/(Пиксели*Кадры) : 0.112
Размер потока : 1,15 Гбайт (93%)
Библиотека кодирования : x264 core 142 r2479 dd79a61
Настройки программы : cabac=1 / ref=1 / deblock=1:0:0 / analyse=0x1:0x111 / me=hex / subme=2 / psy=1 / psy_rd=1.00:0.00 / mixed_ref=0 / me_range=16 / chroma_me=1 / trellis=0 / 8x8dct=0 / cqm=0 / deadzone=21,11 / fast_pskip=1 / chroma_qp_offset=0 / threads=6 / lookahead_threads=2 / sliced_threads=0 / nr=0 / decimate=1 / interlaced=0 / bluray_compat=0 / constrained_intra=0 / bframes=3 / b_pyramid=2 / b_adapt=1 / b_bias=0 / direct=1 / weightb=1 / open_gop=0 / weightp=1 / keyint=300 / keyint_min=30 / scenecut=40 / intra_refresh=0 / rc_lookahead=10 / rc=2pass / mbtree=1 / bitrate=1900 / ratetol=1.0 / qcomp=0.60 / qpmin=0 / qpmax=69 / qpstep=4 / cplxblur=20.0 / qblur=0.5 / vbv_maxrate=20000 / vbv_bufsize=25000 / nal_hrd=none / filler=0 / ip_ratio=1.40 / aq=1:1.00
Цветовой диапазон : Limited
Основные цвета : BT.709
Характеристики трансфера : BT.709
Коэффициенты матрицы : BT.709
Аудио
Идентификатор : 2
Формат : AAC
Формат/Информация : Advanced Audio Codec
Профиль формата : LC
Идентификатор кодека : 40
Продолжительность : 1 ч. 26 м.
Вид битрейта : Переменный
Битрейт : 128 Кбит/сек
Каналы : 2 канала
Расположение каналов : Front: L R
Частота : 44,1 КГц
Частота кадров : 43,066 кадра/сек (1024 spf)
Метод сжатия : С потерями
Размер потока : 79,4 Мбайт (6%)
Заголовок : Stereo / Stereo
Язык : Russian
Default : Да
Alternate group : 1

СКРИНШОТЫ

Яндекс.Метрика
Рейтинг@Mail.ru