[ Сегодня на трекере фрилич! Идет свободное скачивание без начисления Download ]

Акира / Akira (Кацухиро Отомо / Katsuhiro Ôtomo) [1988 г., мультфильм, фантастика, боевик, триллер, детектив, BDRip] MVO [Киномания]

 

Создавать темы 05-Сен-2016 03:18

-Акира / Akira-- Производство: Япония
Год выпуска: 1988 г.
Жанр: мультфильм, фантастика, боевик, триллер, детектив
Продолжительность: 02:04:28Мировая премьера: 16 июля 1988
Перевод: Профессиональный (многоголосый, закадровый) [Киномания]
Режиссер: Кацухиро Отомо / Katsuhiro Ôtomo-В ролях: Ивата Мицуо / Iwata Mitsuo, Сасаки Нодзому / Sasaki Nozomu, Кояма Мами / Koyama Mami, Гэнда Тэссё / Genda Tessho, Отакэ Хироси / Ohtake Hiroshi, Исида Таро / Ishida Taro, Судзуки Мидзухо / Suzuki Mizuho, Китамура Койти / Kitamura Koichi, Икэмидзу Митихиро / Ikemizu Michihiro, Футидзаки Юрико / Fuchizaki Yuriko, ...-Описание: Спустя 31 год после Третьей мировой войны и ядерной бомбардировки столицы Японии, воссоздан новый город — Нью Токио.
Внешне все под контролем, однако, организация страны теперь напоминает профашистское государство, жесточайшим образом подавляющая попытки мятежа. В исследовательских центрах проводятся парапсихологические опыты над людьми для разработки совершенного вида оружия.
Военные, в лице полковника Сикисима, руководителя проекта биологических военных экспериментов, входят в конфликт с политическим крылом правительства. А в стране возникает религиозный культ сверхчеловека по имени Акира, приход которого, якобы, может решить все проблемы Японии.-
Качество видео: BDRip
Контейнер: AVI
Видео кодек: XviD
Аудио кодек: AC3
Видео: 720x384 (1.88:1), 23.976 fps, XviD build 64 ~2055 kbps avg, 0.31 bit/pixel
Аудио: 48 kHz, AC3 Dolby Digital, 3/2 (L,C,R,l,r) + LFE ch, ~448 kbps
Cубтитры: отсутствуют

Доп. информация

Первое аниме, где используют 24 кадра в секунду.

Рецензия

Один из лучших!Примерно год мечтала посмотреть этот мультфильм. И вот свершилось! Это просто нечто невероятное! Я вообще не сентиментальна, но этот мультфильм определённо берёт за душу, особенно концовка.Вопросы, которые поднимает автор, были, есть и будут актуальны. Я думаю, каждый, кто посмотрит этот шедевр, невольно задастся вопросом: «А как же быть? Что делать? «Однако, помимо глобальных вопросов бытия, здесь поднимается наиболее близкий мне вопрос человеческих отношений, дружбы.«Акира «- это мультфильм один из редких, которые остаются с тобой навсегда! Он меняет тебя это однозначно. И, несмотря на то, что этому шедевру более 20-ти лет: моё глубочайшее уважение авторам!10 из 10

Media Info

Общее
Полное имя : F:\Акира\Akira.1988.BDRip.[pirat.ca].avi
Формат : AVI
Формат/Информация : Audio Video Interleave
Профиль формата : OpenDML
Размер файла : 2,18 Гбайт
Продолжительность : 2 ч. 4 м.
Общий поток : 2510 Кбит/сек
Название фильма : Akira.1988.RUS.BDRip.XviD.AC3.-HQCLUB
Программа кодирования : VirtualDubModRus 1.5.10.2 (build 2542/release)Видео
Идентификатор : 0
Формат : MPEG-4 Visual
Профиль формата : Advanced [email protected]/* */
Параметр BVOP формата : 1
Параметр QPel формата : Нет
Параметр GMC формата : Без точки перехода
Параметр матрицы формата : Default (MPEG)
Идентификатор кодека : XVID
Идентификатор кодека/Подсказка : XviD
Продолжительность : 2 ч. 4 м.
Битрейт : 2050 Кбит/сек
Ширина : 720 пикселей
Высота : 384 пикселя
Соотношение сторон : 1,85:1
Частота кадров : 23,976 (23976/1000) кадра/сек
Цветовое пространство : YUV
Субдискретизация насыщенности : 4:2:0
Битовая глубина : 8 бит
Тип развёртки : Прогрессивная
Метод сжатия : С потерями
Бит/(Пиксели*Кадры) : 0.309
Размер потока : 1,78 Гбайт (82%)
Библиотека кодирования : XviD 64Аудио
Идентификатор : 1
Формат : AC-3
Формат/Информация : Audio Coding 3
Расширение режима : CM (complete main)
Параметр Endianness формата : Big
Идентификатор кодека : 2000
Продолжительность : 2 ч. 4 м.
Вид битрейта : Постоянный
Битрейт : 448 Кбит/сек
Каналы : 6 каналов
Расположение каналов : Front: L C R, Side: L R, LFE
Частота : 48,0 КГц
Частота кадров : 31,250 кадров/сек (1536 spf)
Метод сжатия : С потерями
Размер потока : 399 Мбайт (18%)
Выравнивание : Разделение по промежуткам
Продолжительность промежутка : 42 мс. (1,00 видеокадр)
Время предзагрузки промежутка : 500 мс.

Скриншот c названием фильма

Скриншоты

-Трейлер
Яндекс.Метрика
Рейтинг@Mail.ru