КИНО - Лучшие песни (Часть II) - Новая коллекция (2009) [FLAC|Lossless]<Rock, Russian rock>

 

Создавать темы 04-Янв-2014 12:11

-КИНО - Лучшие песни (Часть II) - Новая коллекция (2009)- Год: 2009
Страна-производитель диска: Россия
Издатель (лейбл): Монолит
Номер по каталогу: MT 715391-961-1
Жанр: Rock, Russian rock
Продолжительность: 01:17:00
Кодек: FLAC (*.flac)
Битрейт: Lossless
Тип рипа: image+.cue
Спасибо: JVA
Треклист:
01. Бездельник
02. Время есть, а денег нет
03. Лето
04. Братская Любовь
05. Каждую ночь
06. Дождь для нас
07. Генерал
08. Я объявляю свой дом
09. Рядом со мной
10. Музыка волн
11. Фильмы
12. Звезды останутся здесь
13. Мама Анархия
14. Дальше действовать будем мы
15. Попробуй спеть вместе со мной
16. В наших глазах
17. Место для шага вперед
18. Песня без слов
19. Красно-желтые дни
20. Сказка

Отчёт ЕАС&#58;

Exact Audio Copy V0.99 prebeta 5 from 4. May 2009
Отчёт EAC об извлечении, выполненном 11. апреля 2012, 18:36
???? / ?????? ?????. ????? 2
Дисковод: _NEC    DVD_RW ND-4571A   Adapter: 0  ID: 0
Режим чтения                 : Достоверность
Использование точного потока : Да
Отключение кэша аудио        : Да
Использование указателей C2  : Нет
Коррекция смещения при чтении                     : 48
Способность читать области Lead-in и Lead-out     : Нет
Заполнение пропущенных сэмплов тишиной            : Да
Удаление блоков с тишиной в начале и конце        : Нет
При вычислениях CRC использовались нулевые сэмплы : Да
Интерфейс                                         : Встроенный Win32-интерфейс для Win NT/2000
Выходной формат          : Пользовательский кодировщик
Выбранный битрейт        : 768 kBit/s
Качество                 : Высокий
Добавление ID3-тэга      : Нет
Утилита сжатия           : C:\Program Files\Exact Audio Copy\Flac\flac.exe
Дополнительные параметры : -6 -V -T "ARTIST=%a" -T "TITLE=%t" -T "ALBUM=%g" -T "DATE=%y" -T "TRACKNUMBER=%n" -T "GENRE=%m" -T "COMMENT=%e" %s -o %d
TOC извлечённого CD
     Трек |   Старт  | Длительность | Начальный сектор | Конечный сектор
    ---------------------------------------------------------------------
       1  |  0:00.00 |    3:13.61   |           0      |      14535
       2  |  3:13.61 |    4:07.62   |       14536      |      33122
       3  |  7:21.48 |    1:39.26   |       33123      |      40573
       4  |  9:00.74 |    3:32.19   |       40574      |      56492
       5  | 12:33.18 |    2:59.26   |       56493      |      69943
       6  | 15:32.44 |    3:18.34   |       69944      |      84827
       7  | 18:51.03 |    3:25.51   |       84828      |     100253
       8  | 22:16.54 |    2:22.32   |      100254      |     110935
       9  | 24:39.11 |    3:51.16   |      110936      |     128276
      10  | 28:30.27 |    4:03.53   |      128277      |     146554
      11  | 32:34.05 |    4:54.60   |      146555      |     168664
      12  | 37:28.65 |    3:36.66   |      168665      |     184930
      13  | 41:05.56 |    2:44.38   |      184931      |     197268
      14  | 43:50.19 |    3:55.50   |      197269      |     214943
      15  | 47:45.69 |    4:36.06   |      214944      |     235649
      16  | 52:22.00 |    3:34.74   |      235650      |     251773
      17  | 55:56.74 |    3:39.64   |      251774      |     268262
      18  | 59:36.63 |    5:06.62   |      268263      |     291274
      19  | 64:43.50 |    5:51.38   |      291275      |     317637
      20  | 70:35.13 |    5:58.52   |      317638      |     344539
Характеристики диапазона извлечения и сообщения об ошибках
Выбранный диапазон
     Имя файла F:\EAC\Кино - Лучшие Песни 2CD\CD2\Kino_Best_disc2.wav
     Пиковый уровень 99.9 %
     Качество диапазона 100.0 %
     CRC копии 13ADC1AD
     Копирование... OK
Ошибок не произошло
AccurateRip: сводка
Трек  1  нет в базе данных
Трек  2  нет в базе данных
Трек  3  точность не определена (достоверность 2)  [E1FF3B8C], AccurateRip вернул [643A1DE4]
Трек  4  точность не определена (достоверность 2)  [6771009C], AccurateRip вернул [EA4E742C]
Трек  5  нет в базе данных
Трек  6  нет в базе данных
Трек  7  нет в базе данных
Трек  8  точность не определена (достоверность 2)  [011A04DA], AccurateRip вернул [4A488CAA]
Трек  9  точность не определена (достоверность 2)  [91B2A0F4], AccurateRip вернул [192DA744]
Трек 10  точность не определена (достоверность 2)  [29EDA9D5], AccurateRip вернул [13857675]
Трек 11  точность не определена (достоверность 2)  [054C7251], AccurateRip вернул [32E5DC89]
Трек 12  точность не определена (достоверность 2)  [BBA0D0C9], AccurateRip вернул [93801C39]
Трек 13  точность не определена (достоверность 2)  [2AF1FF35], AccurateRip вернул [A31E524D]
Трек 14  точность не определена (достоверность 2)  [1E66DC24], AccurateRip вернул [8EFD43E4]
Трек 15  точность не определена (достоверность 2)  [001DAD1A], AccurateRip вернул [1334825A]
Трек 16  точность не определена (достоверность 2)  [9100EB60], AccurateRip вернул [25318168]
Трек 17  точность не определена (достоверность 2)  [80C6F998], AccurateRip вернул [ACBE8D60]
Трек 18  точность не определена (достоверность 2)  [9F083F58], AccurateRip вернул [9EF2DA68]
Трек 19  точность не определена (достоверность 2)  [3B7D3031], AccurateRip вернул [807ACFE1]
Трек 20  точность не определена (достоверность 2)  [357AA463], AccurateRip вернул [6F41AEDB]
15 трек(и) не удалось проверить на точность
5 трек(и) не содержатся в базе AccurateRip
Ни один трек не прошёл проверки на точность
В вашей базе может быть иной вариант штамповки диска
Конец отчёта

Отчёт auCDtect Task manager&#58;

-----------------------
DON'T MODIFY THIS FILE
-----------------------
PERFORMER: auCDtect Task Manager, ver. 1.6.0 RC1 build 1.6.0.1
Copyright (c) 2008-2010 y-soft. All rights reserved
http://y-soft.org
ANALYZER: auCDtect: CD records authenticity detector, version 0.8.2
Copyright (c) 2004 Oleg Berngardt. All rights reserved.
Copyright (c) 2004 Alexander Djourik. All rights reserved.
FILE: Kino_Best_disc2.flac
  Size: 501225827 Hash: 31AFE0E5002B33038E112C9CD70A1AE7 Accuracy: -m0
  Conclusion: CDDA 100%
  Signature: 9890D6A7AB0B38074AB5B651CC5229DD66282DE8

Сover

Яндекс.Метрика
Рейтинг@Mail.ru