Маша и медведь: Кошки-мышки / Серия № 58 (Олег Кузовков, Олег Ужинов, Денис Червяцов) [2016 г., мультфильм, короткометражка, комедия, семейный, WEB-DLRip] Original (Rus)

 

Создавать темы 29-Авг-2016 04:53

-Маша и медведь: Кошки-мышкиСерия № 58-- Производство: Россия
Год выпуска: 2016 г.
Жанр: мультфильм, короткометражка, комедия, семейный
Продолжительность: 00:07:48Режиссер: Олег Кузовков, Олег Ужинов, Денис Червяцов-В ролях: Алина Кукушкина, Эдуард Назаров, Борис КутневичРоли озвучивали Неугомонная девочка Маша, Престарелый Медведь, Вертихвостка Медведица, Хитрый Заяц, Белки, Ёжики, Заумная Панда, Тигр, Вечно довольная Свинья, Наглый молодой Медведь и другие домашние и лесные животные-Описание: Мультсериал про девочку Машу, которая никому не дает покоя, и в первую очередь - своему другу Медведю.
Мультик добрый, веселый, а по качеству намного опережает многие отечественные 3D-мультфильмы, да и некоторые западные 3D мультсериалы.
Сериал показывается в "Спокойной ночи, малыши".
Цель сериала «Маша и Медведь» проста и вместе с тем актуальна - попытаться донести до ребенка вечные истины в понятной и занятной форме, представить мир в его многообразии, выявить позитивные стороны в любой ситуации. Тактично объяснить логику действий в различных проблемных ситуациях. В ненавязчивой форме помочь в борьбе с собственными слабостями. Показать человеческие недостатки и высмеять их, не оскорбляя ничьего достоинства.
Формат - комедийный детский сериал.
Сериал рассчитан в первую очередь на детскую аудиторию (от 3 до 9 лет) и поэтому форма изложения материала будет адаптирована для детского восприятия, но не будет чрезмерно упрощенной. Сериал планируется действительно семейным, интересным для всех возрастов, чтобы взрослые могли посмеяться над приключениями Маши и Медведя, вспомнив собственное детство.
Благодаря тому, что каждая серия является законченной историей с достоверным видеорядом, у зрителей возникает ощущение, что персонажи и их мир действительно существует параллельно с нашим (при этом принцип завершенности каждой серии позволяет комбинировать их в любой последовательности, так чтобы зритель мог понимать и воспринимать сериал, даже пропустив его первые эпизоды).- -Качество видео: WEB-DLRip
Контейнер: AVI
Видео кодек: XviD
Аудио кодек: AC3
Видео: 720x400, 25.000 fps, 2074 kbps avg, 0.288 bit/pixel
Аудио: 48 kHz, AC3 Dolby Digital, 2 ch, ~192 kbps
Cубтитры: отсутствуют-

Media Info

Общее
Полное имя : C:\Users\Roman\Pictures\Маша\Кошки-мышки\Masha_i_Medved.58.[pirat.ca].avi
Формат : AVI
Формат/Информация : Audio Video Interleave
Размер файла : 127 Мбайт
Продолжительность : 7 м. 48 с.
Общий поток : 2275 Кбит/сек
Программа кодирования : VirtualDubMod 1.5.10.3 | www.virtualdub-fr.org || (build 2550/release)
Библиотека кодирования : VirtualDubMod build 2550/releaseВидео
Идентификатор : 0
Формат : MPEG-4 Visual
Профиль формата : Advanced [email protected]/* */
Параметр BVOP формата : 2
Параметр QPel формата : Нет
Параметр GMC формата : Без точки перехода
Параметр матрицы формата : Default (MPEG)
Идентификатор кодека : XVID
Идентификатор кодека/Подсказка : XviD
Продолжительность : 7 м. 48 с.
Битрейт : 2074 Кбит/сек
Ширина : 720 пикселей
Высота : 400 пикселей
Соотношение сторон : 16:9
Частота кадров : 25,000 кадров/сек
Цветовое пространство : YUV
Субдискретизация насыщенности : 4:2:0
Битовая глубина : 8 бит
Тип развёртки : Прогрессивная
Метод сжатия : С потерями
Бит/(Пиксели*Кадры) : 0.288
Размер потока : 116 Мбайт (91%)
Библиотека кодирования : XviD 73Аудио
Идентификатор : 1
Формат : AC-3
Формат/Информация : Audio Coding 3
Расширение режима : CM (complete main)
Параметр Endianness формата : Big
Идентификатор кодека : 2000
Продолжительность : 7 м. 48 с.
Вид битрейта : Постоянный
Битрейт : 192 Кбит/сек
Каналы : 2 канала
Расположение каналов : Front: L R
Частота : 48,0 КГц
Битовая глубина : 16 бит
Метод сжатия : С потерями
Размер потока : 10,7 Мбайт (8%)
Выравнивание : Разделение по промежуткам
Продолжительность промежутка : 40 мс. (1,00 видеокадр)
Время предзагрузки промежутка : 500 мс.
-

Скриншот c названием фильма

-

Скриншоты

-
Яндекс.Метрика
Рейтинг@Mail.ru