PHP + SQLite3. Создание CMS системы с нуля (Станислав Бойко) [2013 г., Обучающий видеокурс]

 

Создавать темы 03-Янв-2014 21:00

PHP + SQLite3. Создание CMS системы с нуля
Тип раздаваемого материала: Видеоурок
Страна: Россия
Год выпуска: 2013 г.
Жанр: Обучающий видеокурс
Продолжительность: 06:37:24
Язык: Русский
Перевод: Не требуется
Cубтитры: отсутствуют
Совместимость с Windows 7: полная
Таблэтка: Не требуется
Системные требования: Windows all
Режиссер: Станислав Бойко
Описание: Вашему вниманию представляется обучающий видеокурс «PHP + SQLite3. Создание CMS системы с нуля», с помощью которого Вы узнаете как подключать текстовый редактор, как создать шаблонизатор, сможете написать поиск по сайту и создать CMS систему с нуля.
Этот обучающий видеокурс будет полезен каждому желающему научиться создавать свои сайты, а собственная CMS это отличная возможность избавиться от многих проблем, ведь это практически готовый сайт, который останется всего лишь настроить под Ваши требования. Вас ждет 12 обучающих видеоуроков, которые расскажут Вам о том, как создать свою собственную CMS при помощи PHP и SQLite3.-Контейнер: AVI
Видео кодек: TSCC
Аудио кодек: PCM
Видео: TSCC 1048x692 10fps [Stream 00]
Аудио: PCM 22050Hz mono 352kbps [Stream 01]

Media Info

Общее
Полное имя : D:\sozd.cms.s.nulya\
Формат : AVI
Формат/Информация : Audio Video Interleave
Размер файла : 71,7 Мбайт
Общий поток : 540 Кбит/сек
Видео
Идентификатор : 0
Формат : TechSmith
Идентификатор кодека : tscc
Идентификатор кодека/Информация : TechSmith Screen Capture
Битрейт : 183 Кбит/сек
Ширина : 1048 пикселей
Высота : 692 пикселя
Соотношение сторон : 3:2
Частота кадров : 10,000 кадров/сек
Бит/(Пиксели*Кадры) : 0.025
Размер потока : 24,4 Мбайт (34%)
Аудио
Идентификатор : 1
Формат : PCM
Параметр Endianness формата : Little
Параметр Sign формата : Signed
Идентификатор кодека : 1
Вид битрейта : Постоянный
Битрейт : 352,8 Кбит/сек
Каналы : 1 канал
Частота : 22,05 КГц
Битовая глубина : 16 бит
Размер потока : 46,8 Мбайт (65%)
Продолжительность промежутка : 1000 мс. (10,00 видеокадров)
Время предзагрузки промежутка : 749 мс.

Скриншоты

Доп. информация

Содержание видеокурса «PHP + SQLite3. Создание CMS системы с нуля»:
Проектирование проекта
Структурирование Базы данных проекта
Конфигурирование проекта Создание ядра системы
Написание шаблонизатора с нуля
Создание админ-панели
Работа с новостями
Подключение текстового редактора
Вывод новостей на странице
Работа с временной меткой
Работа с файлами
Гибкие настройки CMS системы
Поиск по сайту

Содержание

Урок 1 - Структурирование проекта
Урок 2 - Проектирование и создание Базы данных
Урок 3 - Конфигурирование проекта - Создание ядра системы
Урок 4 - Пишем шаблонизатор
Урок 5 - Создаем админ-панель
Урок 6 - Функционал добавления новостей
Урок 7 - Подключение текстового редактора
Урок 8 - Вывод новостей на странице
Урок 9 - Редактирование и удаление новостей
Урок 10 - Вставка социальных кнопок на странице новостей
Урок 11 - Настройка CMS системы
Урок 12 - Пишем поиск по сайту
Яндекс.Метрика
Рейтинг@Mail.ru