[ Сегодня на трекере фрилич! Идет свободное скачивание без начисления Download ]

Celine Dion - Une Seule Fois Live 2013 [2014] (Pop)[Blu-Ray 1080p]

 

Создавать темы 16-Авг-2016 04:18

--Celine Dion - Une Seule Fois Live 2013
Год выпуска: 2014 г.
Страна: France , Sony Music Entertainment
Жанр: Pop
Продолжительность: 01:53:44
-Качество видео: Blu-Ray (1080p)
Контейнер: M2TS
Стандарт разрешения: 1080p
Видео кодек: MPEG4 AVC
Аудио кодек: AC-3
Видео: 1920 x 1080, 25,4 Мбит/сек, 23,976 кадров/сек, 0.510 bit/pic
Аудио: TrueHD / AC-3, 448 Кбит/сек(Максимальный битрейт : 5058 Кбит/сек), 6 каналов (Front: L C R, Side: L R, LFE), 48,0 КГц
Аудио: AC-3, 448 Кбит/сек, 6 каналов (Front: L C R, Side: L R, LFE), 48,0 КГц
Текст #1
Идентификатор : 4608 (0x1200)
Идентификатор меню : 1 (0x1)
Формат : PGS
Идентификатор кодека : 144Текст #2
Идентификатор : 4609 (0x1201)
Идентификатор меню : 1 (0x1)
Формат : PGS
Идентификатор кодека : 144-

Селин Дион - имя, которое ассоциируется в первую очередь, с голосом. Сильным, узнаваемым и редким голосом. Благодаря ему, госпожа Дион уже вошла в сотню лучших исполнителей поп-музыки всех времён и народов.
-

Трэклист


01. "Ce n'etait qu'un reve" T. Dion · C. Dion · J. Dion 1:38
02. "Dans un autre monde" Goldman 4:06
03. "Parler a mon pere" Veneruso 2:59
04. "It's All Coming Back to Me Now/The Power of Love" (Medley) Steinman · Mende · DeRouge · Rush · Applegate 9:26
05. "On ne change pas" Goldman 4:25
06. "Destin" Goldman 3:18
07. "Qui peut vivre sans amour ?" Hesme · Gategno 3:27
08. "Je crois toi" Goldman 4:53
09. "La mer et l'enfant" Malade · Gategno 3:53
10. "Celle qui m'a tout appris" Bouraoui · Veneruso 3:53
11. "Terre" Benzi 4:04
12. "J'irai ou tu iras" (duet with Jean-Marc Couture) Goldman 3:43
13. "Bozo" Leclerc 3:03
14. "Je n'ai pas besoin d'amour" Ferland · Mercure 3:55
15. "S'il suffisait d'aimer" Goldman 4:36
16. "L'amour existe encore" Plamondon · Cocciante 4:17
17. "All by Myself" Carmen · Rachmaninoff 4:53
18. "Je sais pas" Goldman · Kapler 6:01
19. "Je danse dans ma tete/Des mots qui sonnent/Incognito" (Medley) Plamondon · Musumarra · Nova · Simon · Roussel 8:14
20. "Love Can Move Mountains/River Deep, Mountain High" (Medley) Warren · Greenwich · Barry · Spector 6:07
21. "My Heart Will Go On" Horner · Jennings 6:34
22. "Pour que tu m'aimes encore" Goldman 5:14
23. "Loved Me Back to Life" Hussain · Motes · Furler 4:49
24. "Le miracle" Bastide · Maurici 5:54

Media Info

Код:
Общее
Идентификатор                            : 0 (0x0)
Полное имя                               : D:\Torrent files\CELINE_DION_UNE_SEULE_FOIS_LIVE\BDMV\STREAM\00008.m2ts
Формат                                   : BDAV
Формат/Информация                        : Blu-ray Video
Размер файла                             : 21,8 Гбайт
Продолжительность                        : 1 ч. 53 м.
Режим общего битрейта                    : Переменный
Общий поток                              : 27,4 Мбит/сек
Максимальный общий битрейт               : 48,0 Мбит/секВидео
Идентификатор                            : 4113 (0x1011)
Идентификатор меню                       : 1 (0x1)
Формат                                   : AVC
Формат/Информация                        : Advanced Video Codec
Профиль формата                          : [email protected]/*  */
Параметр CABAC формата                   : Да
Параметр ReFrames формата                : 4 кадра
Идентификатор кодека                     : 27
Продолжительность                        : 1 ч. 53 м.
Вид битрейта                             : Переменный
Битрейт                                  : 25,4 Мбит/сек
Максимальный битрейт                     : 25,0 Мбит/сек
Ширина                                   : 1920 пикселей
Высота                                   : 1080 пикселей
Соотношение сторон                       : 16:9
Частота кадров                           : 23,976 (24000/1001) кадра/сек
Стандарт вещания                         : NTSC
Цветовое пространство                    : YUV
Субдискретизация насыщенности            : 4:2:0
Битовая глубина                          : 8 бит
Тип развёртки                            : Прогрессивная
Бит/(Пиксели*Кадры)                      : 0.510
Размер потока                            : 20,2 Гбайт (93%)
Цветовой диапазон                        : Limited
Основные цвета                           : BT.709
Характеристики трансфера                 : BT.709
Коэффициенты матрицы                     : BT.709Аудио #1
Идентификатор                            : 4352 (0x1100)
Идентификатор меню                       : 1 (0x1)
Формат                                   : TrueHD / AC-3
Расширение режима                        : CM (complete main)
Параметр Endianness формата              : Big
Режим смешивания                         : Stream extension
Идентификатор кодека                     : 131
Продолжительность                        : 1 ч. 53 м.
Вид битрейта                             : Переменный / Постоянный
Битрейт                                  : 448 Кбит/сек
Максимальный битрейт                     : 5058 Кбит/сек
Каналы                                   : 6 каналов
Расположение каналов                     : Front: L C R, Side: L R, LFE
Частота                                  : 48,0 КГц
Частота кадров                           : 31,250 кадров/сек (1536 spf)
Размер потока                            : 365 Мбайт (2%)Аудио #2
Идентификатор                            : 4353 (0x1101)
Идентификатор меню                       : 1 (0x1)
Формат                                   : AC-3
Формат/Информация                        : Audio Coding 3
Расширение режима                        : CM (complete main)
Параметр Endianness формата              : Big
Идентификатор кодека                     : 129
Продолжительность                        : 1 ч. 53 м.
Вид битрейта                             : Постоянный
Битрейт                                  : 448 Кбит/сек
Каналы                                   : 6 каналов
Расположение каналов                     : Front: L C R, Side: L R, LFE
Частота                                  : 48,0 КГц
Частота кадров                           : 31,250 кадров/сек (1536 spf)
Метод сжатия                             : С потерями
Размер потока                            : 365 Мбайт (2%)Текст #1
Идентификатор                            : 4608 (0x1200)
Идентификатор меню                       : 1 (0x1)
Формат                                   : PGS
Идентификатор кодека                     : 144Текст #2
Идентификатор                            : 4609 (0x1201)
Идентификатор меню                       : 1 (0x1)
Формат                                   : PGS
Идентификатор кодека                     : 144

Инфофайл

Код:
Disc Title: CELINE_DION_UNE_SEULE_FOIS_LIVE
Disc Size: 23 520 337 640 bytes
Protection: AACS
BD-Java: No
BDInfo: 0.5.8Notes:BDINFO HOME:
Cinema Squid
http://www.cinemasquid.com/blu-ray/tools/bdinfoINCLUDES FORUMS REPORT FOR:
AVS Forum Blu-ray Audio and Video Specifications Thread
http://www.avsforum.com/avs-vb/showthread.php?t=1155731********************
PLAYLIST: 00008.MPLS
********************Код:
Total Video
Title Codec Length Movie Size Disc Size Bitrate Bitrate Main Audio Track Secondary Audio Track
----- ------ ------- -------------- -------------- ------- ------- ------------------ ---------------------
00008.MPLS AVC 1:53:44 23 361 681 408 23 520 337 640 27.39 20.00 Dolby TrueHD 5.1 4255Kbps (48kHz/24-bit) DD AC3 5.1 448Kbps
Код:
DISC INFO:Disc Title: CELINE_DION_UNE_SEULE_FOIS_LIVE
Disc Size: 23 520 337 640 bytes
Protection: AACS
BD-Java: No
BDInfo: 0.5.8PLAYLIST REPORT:Name: 00008.MPLS
Length: 1:53:44.108 (h:m:s.ms)
Size: 23 361 681 408 bytes
Total Bitrate: 27.39 MbpsVIDEO:Codec Bitrate Description
----- ------- -----------
MPEG-4 AVC Video 19999 kbps 1080p / 23.976 fps / 16:9 / High Profile 4.1AUDIO:Codec Language Bitrate Description
----- -------- ------- -----------
Dolby TrueHD Audio French 4255 kbps 5.1 / 48 kHz / 4255 kbps / 24-bit (AC3 Embedded: 5.1 / 48 kHz / 448 kbps)
Dolby Digital Audio French 448 kbps 5.1 / 48 kHz / 448 kbpsSUBTITLES:Codec Language Bitrate Description
----- -------- ------- -----------
Presentation Graphics English 2.080 kbps
Presentation Graphics Spanish 2.026 kbpsFILES:Name Time In Length Size Total Bitrate
---- ------- ------ ---- -------------
00008.M2TS 0:00:00.000 1:53:44.108 23 361 681 408 27 387CHAPTERS:Number Time In Length Avg Video Rate Max 1-Sec Rate Max 1-Sec Time Max 5-Sec Rate Max 5-Sec Time Max 10Sec Rate Max 10Sec Time Avg Frame Size Max Frame Size Max Frame Time
------ ------- ------ -------------- -------------- -------------- -------------- -------------- -------------- -------------- -------------- -------------- --------------
1 0:00:00.000 0:01:37.847 15 910 kbps 24 668 kbps 00:00:44.294 23 886 kbps 00:00:41.833 21 716 kbps 00:00:37.954 82 914 bytes 456 772 bytes 00:00:46.046
2 0:01:37.847 0:04:07.705 22 586 kbps 32 917 kbps 00:01:40.558 28 477 kbps 00:01:39.891 25 054 kbps 00:01:39.891 117 751 bytes 668 807 bytes 00:01:42.936
3 0:05:45.553 0:03:00.305 19 776 kbps 29 459 kbps 00:07:30.616 26 152 kbps 00:07:20.481 25 241 kbps 00:07:21.566 103 103 bytes 519 538 bytes 00:07:42.044
4 0:08:45.858 0:09:26.816 20 407 kbps 31 873 kbps 00:14:34.081 26 791 kbps 00:17:39.933 24 640 kbps 00:15:27.718 106 392 bytes 598 861 bytes 00:13:08.496
5 0:18:12.674 0:04:26.349 20 765 kbps 32 266 kbps 00:21:41.800 27 665 kbps 00:21:39.381 25 290 kbps 00:20:55.587 108 258 bytes 497 093 bytes 00:21:21.280
6 0:22:39.024 0:03:18.615 21 120 kbps 29 868 kbps 00:24:21.668 26 864 kbps 00:24:20.625 25 316 kbps 00:24:19.833 110 111 bytes 504 858 bytes 00:24:22.085
7 0:25:57.639 0:03:27.874 21 647 kbps 29 209 kbps 00:26:48.898 25 846 kbps 00:26:47.022 24 552 kbps 00:26:46.938 112 860 bytes 486 776 bytes 00:26:32.674
8 0:29:25.513 0:04:53.584 16 922 kbps 26 475 kbps 00:30:44.175 23 361 kbps 00:32:34.202 22 075 kbps 00:32:31.532 88 225 bytes 499 365 bytes 00:31:42.317
9 0:34:19.098 0:03:53.274 18 690 kbps 28 287 kbps 00:36:52.585 25 840 kbps 00:36:48.581 24 811 kbps 00:36:49.248 97 442 bytes 499 834 bytes 00:37:27.536
10 0:38:12.373 0:03:53.608 20 305 kbps 30 311 kbps 00:40:35.099 26 674 kbps 00:40:54.451 25 226 kbps 00:40:54.452 105 861 bytes 592 451 bytes 00:40:40.020
11 0:42:05.981 0:04:05.912 20 871 kbps 31 170 kbps 00:43:05.749 25 799 kbps 00:42:49.400 24 718 kbps 00:42:49.233 108 812 bytes 520 165 bytes 00:44:35.756
12 0:46:11.894 0:03:41.346 22 537 kbps 26 168 kbps 00:48:13.432 24 669 kbps 00:49:26.838 24 163 kbps 00:49:22.793 117 495 bytes 405 365 bytes 00:46:12.811
13 0:49:53.240 0:03:04.434 16 345 kbps 30 951 kbps 00:52:47.497 24 765 kbps 00:52:44.911 21 292 kbps 00:52:40.782 85 214 bytes 558 122 bytes 00:52:48.498
14 0:52:57.674 0:03:56.110 16 189 kbps 24 615 kbps 00:56:50.490 20 270 kbps 00:56:48.780 19 380 kbps 00:53:20.697 84 402 bytes 545 835 bytes 00:56:51.408
15 0:56:53.785 0:04:36.317 17 940 kbps 33 093 kbps 00:57:19.477 25 480 kbps 00:56:54.160 23 077 kbps 00:56:54.327 93 531 bytes 472 380 bytes 00:57:20.437
16 1:01:30.103 0:04:17.548 16 435 kbps 24 869 kbps 01:02:55.813 23 395 kbps 01:02:06.931 21 473 kbps 01:02:04.262 85 683 bytes 436 573 bytes 01:04:15.643
17 1:05:47.652 0:04:53.960 18 580 kbps 30 975 kbps 01:09:24.410 28 098 kbps 01:10:26.180 26 723 kbps 01:10:22.760 96 866 bytes 536 626 bytes 01:07:56.530
18 1:10:41.612 0:06:02.779 19 645 kbps 31 071 kbps 01:13:56.223 25 910 kbps 01:13:52.302 24 088 kbps 01:16:02.975 102 420 bytes 553 149 bytes 01:15:25.229
19 1:16:44.391 0:08:21.292 22 337 kbps 31 039 kbps 01:17:03.994 27 645 kbps 01:17:00.449 25 115 kbps 01:16:55.861 116 455 bytes 485 880 bytes 01:24:16.468
20 1:25:05.683 0:06:06.949 22 446 kbps 27 586 kbps 01:25:26.329 24 944 kbps 01:28:06.239 24 218 kbps 01:30:00.186 117 022 bytes 440 819 bytes 01:25:12.315
21 1:31:12.633 0:06:32.892 18 810 kbps 30 564 kbps 01:37:07.238 26 333 kbps 01:32:36.634 24 837 kbps 01:32:36.259 98 066 bytes 529 300 bytes 01:33:33.649
22 1:37:45.526 0:05:14.897 21 333 kbps 32 893 kbps 01:37:49.989 26 973 kbps 01:40:42.786 25 566 kbps 01:40:44.788 111 218 bytes 534 008 bytes 01:39:14.740
23 1:43:00.424 0:04:49.580 21 384 kbps 30 237 kbps 01:44:16.166 26 834 kbps 01:44:13.121 24 898 kbps 01:43:17.191 111 485 bytes 597 882 bytes 01:45:55.307
24 1:47:50.005 0:05:54.103 20 964 kbps 32 587 kbps 01:51:44.906 27 758 kbps 01:51:13.666 26 026 kbps 01:49:38.238 109 308 bytes 599 839 bytes 01:51:13.833********************
PLAYLIST: 00001.MPLS
********************Код:
Total Video
Title Codec Length Movie Size Disc Size Bitrate Bitrate Main Audio Track Secondary Audio Track
----- ------ ------- -------------- -------------- ------- ------- ------------------ ---------------------
00001.MPLS AVC 0:02:46 25 767 936 23 520 337 640 1.24 0.89 DD AC3 2.0 192Kbps
Код:
DISC INFO:Disc Title: CELINE_DION_UNE_SEULE_FOIS_LIVE
Disc Size: 23 520 337 640 bytes
Protection: AACS
BD-Java: No
BDInfo: 0.5.8PLAYLIST REPORT:Name: 00001.MPLS
Length: 0:02:46.624 (h:m:s.ms)
Size: 25 767 936 bytes
Total Bitrate: 1.24 MbpsVIDEO:Codec Bitrate Description
----- ------- -----------
MPEG-4 AVC Video 888 kbps 1080p / 23.976 fps / 16:9 / High Profile 4.1AUDIO:Codec Language Bitrate Description
----- -------- ------- -----------
Dolby Digital Audio French 192 kbps 2.0 / 48 kHz / 192 kbps / DN -4dBFILES:Name Time In Length Size Total Bitrate
---- ------- ------ ---- -------------
00002.M2TS 0:00:00.000 0:02:46.624 25 767 936 1 237CHAPTERS:Number Time In Length Avg Video Rate Max 1-Sec Rate Max 1-Sec Time Max 5-Sec Rate Max 5-Sec Time Max 10Sec Rate Max 10Sec Time Avg Frame Size Max Frame Size Max Frame Time
------ ------- ------ -------------- -------------- -------------- -------------- -------------- -------------- -------------- -------------- -------------- --------------
1 0:00:00.000 0:02:46.624 888 kbps 3 634 kbps 00:00:00.750 3 127 kbps 00:00:00.375 1 855 kbps 00:00:00.667 4 627 bytes 129 785 bytes 00:01:52.153********************
PLAYLIST: 00002.MPLS
********************Код:
Total Video
Title Codec Length Movie Size Disc Size Bitrate Bitrate Main Audio Track Secondary Audio Track
----- ------ ------- -------------- -------------- ------- ------- ------------------ ---------------------
00002.MPLS AVC 0:01:52 129 890 304 23 520 337 640 9.27 8.55 DD AC3 2.0 192Kbps
Код:
DISC INFO:Disc Title: CELINE_DION_UNE_SEULE_FOIS_LIVE
Disc Size: 23 520 337 640 bytes
Protection: AACS
BD-Java: No
BDInfo: 0.5.8PLAYLIST REPORT:Name: 00002.MPLS
Length: 0:01:52.045 (h:m:s.ms)
Size: 129 890 304 bytes
Total Bitrate: 9.27 MbpsVIDEO:Codec Bitrate Description
----- ------- -----------
MPEG-4 AVC Video 8549 kbps 1080i / 29.970 fps / 16:9 / High Profile 4.1AUDIO:Codec Language Bitrate Description
----- -------- ------- -----------
Dolby Digital Audio French 192 kbps 2.0 / 48 kHz / 192 kbps / DN -4dBFILES:Name Time In Length Size Total Bitrate
---- ------- ------ ---- -------------
00001.M2TS 0:00:00.000 0:01:52.045 129 890 304 9 274CHAPTERS:Number Time In Length Avg Video Rate Max 1-Sec Rate Max 1-Sec Time Max 5-Sec Rate Max 5-Sec Time Max 10Sec Rate Max 10Sec Time Avg Frame Size Max Frame Size Max Frame Time
------ ------- ------ -------------- -------------- -------------- -------------- -------------- -------------- -------------- -------------- -------------- --------------
1 0:00:00.000 0:01:52.045 8 549 kbps 12 845 kbps 00:01:37.397 9 170 kbps 00:00:00.400 9 087 kbps 00:01:37.430 35 657 bytes 717 390 bytes 00:01:37.464
-

Скриншоты

--
Яндекс.Метрика
Рейтинг@Mail.ru