Изо всех сил / Over the Top (Менахем Голан / Menahem Golan) [1987 г., Спорт, Приключения, BDRip-AVC] [Ger] AVO (Гаврилов (ранний, поздний), Немахов, Сергей Белов) + Sub (Rus)

 

Создавать темы 10-Авг-2016 03:37

Изо всех сил / Over the Top
«Rocky, Rambo, Cobra And Now _Hawk_, In The Biggest Fight Of His Life»
- Год выпуска: 1987
Производство: США
Жанр: Спорт, Приключения
Продолжительность: 01:33:43Перевод: Авторский (одноголосый, закадровый) Гаврилов (ранний, поздний)*, Немахов, Сергей Белов
* - Две дорожки, как есть и чищенная в изотопе.
Субтитры: русскиеРежиссер: Менахем Голан / Menahem GolanВ ролях: Сильвестр Сталлоне, Роберт Лоджа, Сьюзан Блейкли, Рик Цумвальт, Дэвид Менденхолл, Крис МакКарти, Терри Фанк, Боб Битти, Аллан Граф, Мэджик ШварцОписание: Водитель грузовика Линкольн Хоук, по прозвищу Ястреб, едет в Лас-Вегас на чемпионат мира по армреслингу. У него много забот: надо встретиться и поговорить с бывшей женой, умирающей от странной болезни сердца; проведать, сломав ворота и разобравшись с телохранителями, любимого тестя и любой ценой заполучить сына, брошенного 10 лет назад. Сын, в начале принявший отца в штыки, станет опорой Ястреба и поможет ему выиграть чемпионат.
Качество видео: BDRip-AVC
Контейнер: MKV
Видео кодек: MPEG4 AVC / h.264
Видео: 1056x452 / 3444 kbps / 23,976 fps / 2,35:1 / High Profile 4.1Аудио #1: 48 kHz, AC3 Dolby Digital, 2/0 (L,R) ch, ~192.00 kbps avg - Гаврилов ранний (как есть)
Аудио #2: 48 kHz, AC3 Dolby Digital, 2/0 (L,R) ch, ~192.00 kbps avg - Гаврилов ранний (чищенный)
Аудио #3: 48 kHz, AC3, 3/2 (L,C,R,l,r) + LFE ch, ~448.00 kbps avg - Гаврилов поздний
Аудио #4: 48 kHz, AC3, 3/2 (L,C,R,l,r) + LFE ch, ~448.00 kbps avg - Немахов
Аудио #5: 48 kHz, AC3 Dolby Digital, 2/0 (L,R) ch, ~224.00 kbps avg - Сергей Белов

Media Info

Формат : Matroska
Версия формата : Version 4 / Version 2
Размер файла : 3,25 Гбайт
Продолжительность : 1 ч. 33 м.
Общий поток : 4963 Кбит/сек
Название фильма : Over the Top.1987.BDRip-AVC.2xGavrilov.Nemahov.S,Belov.Subs -=anton966=-
Дата кодирования : UTC 2016-08-08 22:33:33
Программа кодирования : mkvmerge v8.3.0 ('Over the Horizon') 64bit
Библиотека кодирования : libebml v1.3.1 + libmatroska v1.4.2Видео
Идентификатор : 1
Формат : AVC
Формат/Информация : Advanced Video Codec
Профиль формата : [email protected]/* */
Параметр CABAC формата : Да
Параметр ReFrames формата : 13 кадров
Идентификатор кодека : V_MPEG4/ISO/AVC
Продолжительность : 1 ч. 33 м.
Битрейт : 3445 Кбит/сек
Ширина : 1056 пикселей
Высота : 452 пикселя
Соотношение сторон : 2,35:1
Режим частоты кадров : Постоянный
Частота кадров : 23,976 (24000/1001) кадра/сек
Цветовое пространство : YUV
Субдискретизация насыщенности : 4:2:0
Битовая глубина : 8 бит
Тип развёртки : Прогрессивная
Бит/(Пиксели*Кадры) : 0.301
Размер потока : 2,26 Гбайт (69%)
Заголовок : Over the Top.1987.BDRip-AVC
Библиотека кодирования : x264 core 148 r2705kMod 3f5ed56
Настройки программы : cabac=1 / ref=13 / deblock=1:-3:-3 / analyse=0x3:0x113 / me=umh / subme=11 / psy=1 / fade_compensate=0.00 / psy_rd=1.20:0.20 / mixed_ref=1 / me_range=32 / chroma_me=1 / trellis=2 / 8x8dct=1 / cqm=0 / deadzone=21,11 / fast_pskip=1 / chroma_qp_offset=-3 / threads=8 / lookahead_threads=2 / sliced_threads=0 / nr=0 / decimate=1 / interlaced=0 / bluray_compat=0 / constrained_intra=0 / fgo=0 / bframes=11 / b_pyramid=2 / b_adapt=2 / b_bias=0 / direct=1 / weightb=1 / open_gop=0 / weightp=2 / keyint=250 / keyint_min=23 / scenecut=40 / intra_refresh=0 / rc_lookahead=40 / rc=crf / mbtree=0 / crf=19.0000 / qcomp=0.60 / qpmin=0 / qpmax=69 / qpstep=4 / vbv_maxrate=50000 / vbv_bufsize=62500 / crf_max=0.0 / nal_hrd=none / filler=0 / ip_ratio=1.50 / pb_ratio=1.30 / aq=3:1.00
Язык : English
Default : Да
Forced : Нет
Цветовой диапазон : Limited
Основные цвета : BT.709
Характеристики трансфера : BT.709
Коэффициенты матрицы : BT.709Аудио #1
Идентификатор : 2
Формат : AC-3
Формат/Информация : Audio Coding 3
Профиль формата : Dolby Digital
Расширение режима : CM (complete main)
Параметр Endianness формата : Big
Идентификатор кодека : A_AC3
Продолжительность : 1 ч. 33 м.
Вид битрейта : Постоянный
Битрейт : 192 Кбит/сек
Каналы : 2 канала
Расположение каналов : Front: L R
Частота : 48,0 КГц
Частота кадров : 31,250 кадров/сек (1536 spf)
Метод сжатия : С потерями
Размер потока : 129 Мбайт (4%)
Заголовок : Gavrilov Early
Язык : Russian
Default : Да
Forced : НетАудио #2
Идентификатор : 3
Формат : AC-3
Формат/Информация : Audio Coding 3
Профиль формата : Dolby Digital
Расширение режима : CM (complete main)
Параметр Endianness формата : Big
Идентификатор кодека : A_AC3
Продолжительность : 1 ч. 33 м.
Вид битрейта : Постоянный
Битрейт : 192 Кбит/сек
Каналы : 2 канала
Расположение каналов : Front: L R
Частота : 48,0 КГц
Частота кадров : 31,250 кадров/сек (1536 spf)
Метод сжатия : С потерями
Размер потока : 129 Мбайт (4%)
Заголовок : Gavrilov Early Clean
Язык : Russian
Default : Нет
Forced : НетАудио #3
Идентификатор : 4
Формат : AC-3
Формат/Информация : Audio Coding 3
Расширение режима : CM (complete main)
Параметр Endianness формата : Big
Идентификатор кодека : A_AC3
Продолжительность : 1 ч. 33 м.
Вид битрейта : Постоянный
Битрейт : 448 Кбит/сек
Каналы : 6 каналов
Расположение каналов : Front: L C R, Side: L R, LFE
Частота : 48,0 КГц
Частота кадров : 31,250 кадров/сек (1536 spf)
Метод сжатия : С потерями
Размер потока : 300 Мбайт (9%)
Заголовок : Gavrilov Late
Язык : Russian
Default : Нет
Forced : НетАудио #4
Идентификатор : 5
Формат : AC-3
Формат/Информация : Audio Coding 3
Расширение режима : CM (complete main)
Параметр Endianness формата : Big
Идентификатор кодека : A_AC3
Продолжительность : 1 ч. 33 м.
Вид битрейта : Постоянный
Битрейт : 448 Кбит/сек
Каналы : 6 каналов
Расположение каналов : Front: L C R, Side: L R, LFE
Частота : 48,0 КГц
Частота кадров : 31,250 кадров/сек (1536 spf)
Метод сжатия : С потерями
Размер потока : 300 Мбайт (9%)
Заголовок : Nemahov
Язык : Russian
Default : Нет
Forced : НетАудио #5
Идентификатор : 6
Формат : AC-3
Формат/Информация : Audio Coding 3
Расширение режима : CM (complete main)
Параметр Endianness формата : Big
Идентификатор кодека : A_AC3
Продолжительность : 1 ч. 33 м.
Вид битрейта : Постоянный
Битрейт : 224 Кбит/сек
Каналы : 2 канала
Расположение каналов : Front: L R
Частота : 48,0 КГц
Частота кадров : 31,250 кадров/сек (1536 spf)
Метод сжатия : С потерями
Размер потока : 150 Мбайт (5%)
Заголовок : S.Belov
Язык : Russian
Default : Нет
Forced : НетТекст #1
Идентификатор : 7
Формат : PGS
Режим смешивания : zlib
Идентификатор кодека : S_HDMV/PGS
Идентификатор кодека/Информация : Picture based subtitle format used on BDs/HD-DVDs
Продолжительность : 1 ч. 26 м.
Битрейт : 5771 бит/сек
Count of elements : 1784
Размер потока : 3,55 Мбайт (0%)
Заголовок : Full
Язык : Russian
Default : Нет
Forced : НетТекст #2
Идентификатор : 8
Формат : PGS
Режим смешивания : zlib
Идентификатор кодека : S_HDMV/PGS
Идентификатор кодека/Информация : Picture based subtitle format used on BDs/HD-DVDs
Продолжительность : 1 ч. 26 м.
Битрейт : 6349 бит/сек
Count of elements : 1876
Размер потока : 3,91 Мбайт (0%)
Заголовок : DENnv
Язык : Russian
Default : Нет
Forced : НетМеню
00:00:00.000 : en:
00:05:24.240 : en:
00:11:59.050 : en:
00:19:03.224 : en:
00:22:05.324 : en:
00:30:17.732 : en:
00:35:24.705 : en:
00:40:58.789 : en:
00:45:04.201 : en:
00:49:03.815 : en:
00:54:40.026 : en:
01:03:10.119 : en:
01:09:49.185 : en:
01:12:28.677 : en:
01:14:56.992 : en:
01:20:18.438 : en:

log x.264

avs [info]: 1056x452p 1:1 @ 24000/1001 fps (cfr)
x264 [info]: using SAR=1/1
x264 [info]: using cpu capabilities: MMX2 SSE2Fast SSSE3 SSE4.2 AVX XOP FMA4 FMA3 LZCNT BMI1
x264 [info]: profile High, level 4.1
x264 [info]: cabac=1 ref=13 deblock=1:-3:-3 analyse=0x3:0x113 me=umh subme=11 psy=1 fade_compensate=0.00 psy_rd=1.20:0.20 mixed_ref=1 me_range=32 chroma_me=1 trellis=2 8x8dct=1 cqm=0 deadzone=21,11 fast_pskip=1 chroma_qp_offset=-3 threads=8 lookahead_threads=2 sliced_threads=0 nr=0 decimate=1 interlaced=0 bluray_compat=0 constrained_intra=0 fgo=0 bframes=11 b_pyramid=2 b_adapt=2 b_bias=0 direct=1 weightb=1 open_gop=0 weightp=2 keyint=250 keyint_min=23 scenecut=40 intra_refresh=0 rc_lookahead=40 rc=crf mbtree=0 crf=19.0000 qcomp=0.60 qpmin=0 qpmax=69 qpstep=4 vbv_maxrate=50000 vbv_bufsize=62500 crf_max=0.0 nal_hrd=none filler=0 ip_ratio=1.50 pb_ratio=1.30 aq=3:1.00
x264 [info]: frame I:975 Avg QP:17.83 size: 74851
x264 [info]: frame P:29560 Avg QP:19.52 size: 33133
x264 [info]: frame B:104297 Avg QP:21.54 size: 13127
x264 [info]: consecutive B-frames: 1.8% 2.5% 7.8% 24.0% 22.8% 31.4% 4.3% 2.6% 1.2% 0.6% 0.5% 0.5%
x264 [info]: mb I I16..4: 14.9% 64.1% 21.0%
x264 [info]: mb P I16..4: 1.1% 20.5% 3.6% P16..4: 26.1% 34.2% 13.4% 0.0% 0.0% skip: 1.3%
x264 [info]: mb B I16..4: 0.0% 2.6% 0.6% B16..8: 41.7% 23.9% 4.3% direct: 7.1% skip:19.9% L0:43.7% L1:42.5% BI:13.8%
x264 [info]: 8x8 transform intra:79.9% inter:53.4%
x264 [info]: coded y,uvDC,uvAC intra: 93.9% 86.2% 54.3% inter: 40.8% 28.4% 1.6%
x264 [info]: i16 v,h,dc,p: 5% 4% 25% 66%
x264 [info]: i8 v,h,dc,ddl,ddr,vr,hd,vl,hu: 11% 7% 10% 9% 13% 13% 12% 11% 13%
x264 [info]: i4 v,h,dc,ddl,ddr,vr,hd,vl,hu: 43% 5% 5% 6% 9% 9% 8% 7% 7%
x264 [info]: i8c dc,h,v,p: 35% 27% 20% 18%
x264 [info]: Weighted P-Frames: Y:7.3% UV:4.5%
x264 [info]: ref P L0: 41.5% 13.1% 16.3% 6.1% 5.5% 3.7% 3.7% 2.0% 2.0% 1.6% 1.6% 1.3% 1.5% 0.1% 0.0%
x264 [info]: ref B L0: 77.4% 8.5% 4.4% 2.4% 1.8% 1.5% 1.2% 0.8% 0.7% 0.6% 0.4% 0.2%
x264 [info]: ref B L1: 96.4% 3.6%
x264 [info]: kb/s:3444.75

Скриншоты

Яндекс.Метрика
Рейтинг@Mail.ru