[ Сегодня на трекере фрилич! Идет свободное скачивание без начисления Download ]

Тихая Земля / The Quiet Earth (Джеф Мерфи / Geoff Murphy) [1985 г., фантастика, HDRip] VO

 

Создавать темы 10-Авг-2016 03:17

-Тихая Земля / The Quiet Earth-- Производство: Новая Зеландия, Cinepro, Mr. Yellowbeard Productions Limited & Company, Pilsbury Productions
Год выпуска: 1985 г.
Жанр: фантастика
Продолжительность: 01:27:15Мировая премьера: 8 сентября 1985
Перевод: Любительский (одноголосый, закадровый)
Режиссер: Джеф Мерфи / Geoff Murphy-В ролях: Бруно Лоуренс, Элисон Рутледж, Пит Смит, Анзак Уоллес, Норман Флетчер, Том Хайд-Описание: Зак Хобсон однажды проснулся утром и обнаружил, что он единственный человек, оставшийся на Земле. Зак может выбрать себе любое жилище и любую понравившуюся машину. Однако вскоре он начинает терять рассудок, потому что нет никого, с кем бы можно было поговорить.-
Качество видео: HDRip
Контейнер: AVI
Видео кодек: XviD
Аудио кодек: AC3
Видео: 720x384 (1.88:1), 25 fps, XviD build 50 ~2183 kbps avg, 0.32 bit/pixel
Аудио: 48 kHz, AC3 Dolby Digital, 2/0 (L,R) ch, ~192 kbps
Cубтитры: отсутствуют

Рецензия

Последний человек на ЗемлеСовершенно гениальная жанровая вещь. Прежде всего, картина радует тем, что подана она первым делом, с психологической точки зрения, и не пытается выдавить из зрителя натужные сопли, при этом изливая на него цунами из архаичных компьютерных спецэффектов, как это, допустим, случилось в отвратительной и лишённым сюжетного стержня, поделкой, под названием «Я легенда», с понятно каким Смитом в заглавной роли, по своей тематике очень близко стоящей к данной киноленте.В этой же ленте всё подано именно с ракурса человеческой души, абсолютная проработка и глубина:Перед нами ОН, последний человек на земле. С одной стороны, у него теперь есть всё: ОН может поселиться в самом дорогом и роскошном доме, обеспечить себя лучшей мебелью, лучшей одеждой, лучшей едой. ОН может сделать всё, что ему угодно и за это ему ничего не будет: ОН может угнать огромный бульдозер и стереть с его помощью с лица земли пол города, может выйти голышом на центральную площадь города, может совершенно свободно и спокойно зайти на некогда охраняемую сверхсекретную военную базу. У него есть всё. И в то же самое время, у него нет ничего. Никакого будущего, никакой надежды. И ОН, некогда чувствовавший себя богом, теперь уже чувствует себя самым жалким и ничтожным существом на планете. Или даже самым жалким во всей вселенной. Вот-вот и ОН засунет в рот ствол дробовика. Но внезапно, появляется ОНА. Женщина. А как известно, женщина — это будущее. У него снова есть смысл жизни, снова есть желание продолжать существовать и он сделает всё ради неё.Но вот появляется другой самец: более молодой, более сильный и энергичный, ну и конечно же, гораздо более привлекательный для самки. Естественно, самец номер один ей уже совершенно не интересен. А второму ему не нужен первый ОН. Поэтому, первый ОН снова теряет смысл жизни и решает прекратить собственное существование раз и навсегда. Но как выяснилось в итоге, конец это на самом деле есть ничто иное, как начало. Начало чего-то нового и неизведанного.В итоге: Перед нами один из лучших фильмов жанра фантастики, который когда-либо был только создан. «Тихая планета» настолько тонко, филигранно и проблематично, что заслуженно получает место в списке моих самых любимых фильмов. Потрясающий фантастический триллер, который должен видеть каждый, вне зависимости от предпочтений. Поразительно, что режиссёр настолько великолепной ленты, спустя годы скатится в абсолютно безнадёжный шлак, вроде «Крепость-2» и «Напуганный».10 из 10

Media Info

Общее
Полное имя : J:\Тихая Земля\The Quiet Earth.[pirat.ca].avi
Формат : AVI
Формат/Информация : Audio Video Interleave
Размер файла : 1,45 Гбайт
Продолжительность : 1 ч. 27 м.
Общий поток : 2385 Кбит/сек
Название фильма : The Quiet Earth.[pirat.ca]
Программа кодирования : VirtualDubMod 1.5.10.3 (build 2550/release)Видео
Идентификатор : 0
Формат : MPEG-4 Visual
Профиль формата : Advanced [email protected]/* */
Параметр BVOP формата : 1
Параметр QPel формата : Нет
Параметр GMC формата : Без точки перехода
Параметр матрицы формата : Выборочная
Идентификатор кодека : XVID
Идентификатор кодека/Подсказка : XviD
Продолжительность : 1 ч. 27 м.
Битрейт : 2184 Кбит/сек
Ширина : 720 пикселей
Высота : 384 пикселя
Соотношение сторон : 1,85:1
Частота кадров : 25,000 кадров/сек
Цветовое пространство : YUV
Субдискретизация насыщенности : 4:2:0
Битовая глубина : 8 бит
Тип развёртки : Прогрессивная
Метод сжатия : С потерями
Бит/(Пиксели*Кадры) : 0.316
Размер потока : 1,33 Гбайт (92%)
Библиотека кодирования : XviD 1.2.1 (UTC 2008-12-04)Аудио
Идентификатор : 1
Формат : AC-3
Формат/Информация : Audio Coding 3
Расширение режима : CM (complete main)
Параметр Endianness формата : Big
Идентификатор кодека : 2000
Продолжительность : 1 ч. 27 м.
Вид битрейта : Постоянный
Битрейт : 192 Кбит/сек
Каналы : 2 канала
Расположение каналов : Front: L R
Частота : 48,0 КГц
Частота кадров : 31,250 кадров/сек (1536 spf)
Метод сжатия : С потерями
Размер потока : 120 Мбайт (8%)
Выравнивание : Разделение по промежуткам
Продолжительность промежутка : 40 мс. (1,00 видеокадр)
Время предзагрузки промежутка : 500 мс.

Скриншот c названием фильма

Скриншоты

-Трейлер
Яндекс.Метрика
Рейтинг@Mail.ru