[ Сегодня на трекере фрилич! Идет свободное скачивание без начисления Download ]

Братья по крови / Blutsbrüder (Вернер В. Валльрот / Werner W. Wallroth) [1975 г., вестерн, BDRip] Dub [Советский дубляж + вставки]

 

Создавать темы 09-Авг-2016 03:37

-Братья по крови / Blutsbrüder-- Производство: Германия (ГДР), Киностудия Дефа
Год выпуска: 1975 г.
Жанр: вестерн
Продолжительность: 01:35:34Мировая премьера: 26 июня 1975
Перевод: Профессиональный (полное дублирование) [Советский дубляж + вставки]
Режиссер: Вернер В. Валльрот / Werner W. Wallroth-В ролях: Гойко Митич, Дин Рид, Гизела Фройденберг, Йорг Панкнин, Корнел Испас, Сина Фидлер, Евгения Босэнчяну, Маня Александру, Тома Димитриу-Описание: Американский солдат, осуждающий истребление индейцев, оставляет армию и переходит на их сторону. Он становится мужем прекрасной индианки, скрепляет кровью свою дружбу с вождем племени и вместе с ним возглавляет восстание против американцев.-
Качество видео: BDRip
Контейнер: AVI
Видео кодек: XviD
Аудио кодек: AC3
Видео: 704x384 (1.83:1), 25 fps, XviD MPEG-4 ~1893 kbps avg, 0.28 bit/pixel
Аудио: 48 kHz, AC3 Dolby Digital, 2/0 (L,R) ch, ~192 kbps
Cубтитры: отсутствуют

Рецензия

Будущего не будетПростой фильм, но тяжелый. Он повествует об американском солдате, который осуждает убийство индейцев и однажды переходит на их сторону, а потом начинает активную борьбу против своего народа. Как и во всяком приключенческом фильме, в нем присутствуют погони, стрельба и дикие равнины. Однако в этой картине есть очень глубокий смысл. Не могу сказать, что он оригинальный, но все же есть. В «Братьях по крови» очень реалистично показаны ужасы геноцида и расизма. Некоторые сцены поражают своей натуралистичной жестокостью, а сюжетные линии просто не могут оставить равнодушным.Не знаю, почему этот фильм оказался таким сильным. Буду откровенным, он далеко не идеальный. Манера съемки примитивна, качество среднее, да и к тому же у главного героя, весьма идиотское для солдата прозвище «Гармоника» (хотя, может быть, это вина переводчиков). Скорее всего, картина оказывает такое впечатление благодаря разрушению канонов типичных «штрудель-вестернов». Начало кажется заурядным и возникает впечатление, что можно предсказать концовку… Но нет! Последующие события, несмотря на свою банальность, оказывают немалое воздействие на зрителя. В фильме нет шаблонных фраз, признаний в любви, наоборот, в нем развенчиваются все штампы лент про индейцев. Саундтрек практически отсутствует, что и придает этому неоднозначному кино особый оттенок.7 из 10

Media Info

Oбщее
Полное имя : J:\Братья по крови\Bratya Po Krovi.1975.BDRip.[pirat.ca].avi
Формат : AVI
Формат/Информация : Audio Video Interleave
Размер файла : 1,40 Гбайт
Продолжительность : 1 ч. 35 м.
Общий поток : 2096 Кбит/сек
Название фильма : Bratya Po Krovi.1975.BDRip.[pirat.ca]Видео
Идентификатор : 0
Формат : MPEG-4 Visual
Профиль формата : Advanced [email protected]/* */
Параметр BVOP формата : 2
Параметр QPel формата : Нет
Параметр GMC формата : Без точки перехода
Параметр матрицы формата : Default (MPEG)
Идентификатор кодека : XVID
Идентификатор кодека/Подсказка : XviD
Продолжительность : 1 ч. 35 м.
Битрейт : 1894 Кбит/сек
Ширина : 704 пикселя
Высота : 384 пикселя
Соотношение сторон : 1,85:1
Частота кадров : 25,000 кадров/сек
Цветовое пространство : YUV
Субдискретизация насыщенности : 4:2:0
Битовая глубина : 8 бит
Тип развёртки : Прогрессивная
Метод сжатия : С потерями
Бит/(Пиксели*Кадры) : 0.280
Размер потока : 1,26 Гбайт (90%)
Библиотека кодирования : XviD 73Аудио
Идентификатор : 1
Формат : AC-3
Формат/Информация : Audio Coding 3
Расширение режима : CM (complete main)
Параметр Endianness формата : Big
Идентификатор кодека : 2000
Продолжительность : 1 ч. 35 м.
Вид битрейта : Постоянный
Битрейт : 192 Кбит/сек
Каналы : 2 канала
Расположение каналов : Front: L R
Частота : 48,0 КГц
Частота кадров : 31,250 кадров/сек (1536 spf)
Метод сжатия : С потерями
Размер потока : 131 Мбайт (9%)
Выравнивание : Соединение по промежуткам
Продолжительность промежутка : 40 мс. (1,00 видеокадр)
Время предзагрузки промежутка : 512 мс.

Скриншот c названием фильма

Скриншоты

-Трейлер
Яндекс.Метрика
Рейтинг@Mail.ru