Флэшбэк / Flashback (Франко Амурри / Franco Amurri) [1990 г., боевик, драма, комедия, криминал, приключения, WEB-DLRip] DVO [Paramount Channel]

 

Создавать темы 23-Июл-2016 02:40

-Флэшбэк / Flashback-- Производство: США, 60/80 Productions, Paramount Pictures
Год выпуска: 1990 г.
Жанр: боевик, драма, комедия, криминал, приключения
Продолжительность: 01:47:38Мировая премьера: 2 февраля 1990
Перевод: Профессиональный (двухголосый, закадровый) [Paramount Channel]
Режиссер: Франко Амурри / Franco Amurri-В ролях: Деннис Хоппер, Кифер Сазерленд, Кэрол Кейн, Пол Дули, Клифф Де Янг, Ричард Мейсер, Майкл МакКин, Кэтлин Йорк, Том О’Брайен, Эрик Лоренц-Описание: Хьюи Уокер, бунтарь-хиппи со стажем преследуется ФБР за пустячное преступление 20-летней давности. Его конвоир — агент ФБР Джон Батнер, которому дано задание перевезти в тюрьму длинноволосого ветерана. Но по дороге арестант Батнера сбегает.
Пытаясь поймать беглеца, Джон вступает в конфликт с полицией, и вскоре сам пускается в бега со своим злополучным напарником.-
Качество видео: WEB-DLRip
Контейнер: AVI
Видео кодек: XviD
Аудио кодек: AC3
Видео: 720x400 (1.80:1), 23.976 fps, XviD build 73 ~1549 kbps avg, 0.22 bit/pixel
Аудио: 48 kHz, AC3 Dolby Digital, 2/0 (L,R) ch, ~192 kbps
Cубтитры: отсутствуют

Доп. информация

Первый американский фильм итальянского режиссера Франко Амурри, который был ассистентом Федерико Феллини на съемках фильма «Город женщин».
Персонаж Дэнниса Хоппера произносит фразу «Для того, чтобы стать мятежником недостаточно сходить в видеопрокат и взять «Беспечного ездока»». Хоппер сыграл в этом фильме главную роль и был его режиссёром.

Награды

Рецензия

Make love, not war!Мы будем спорить c тобой о фильме «Flashback» до хрипоты (Чиж, А. Чернецкий)Строки из песни Sha-La-La группы «Разные люди» заставили меня как поклонника их творчества заняться поиском фильма «Flashback». И я не пожалел об этом.Фильм этот появился на экранах полулегальных кабельных каналов еще в 1992-93 годах. И тогда он пришелся как нельзя ко времени — дух свободы начал проникать в наши головы.Два замечательных актера — Деннис Хоппер и Кифер Сазерленд — сыграли роли хиппи и яппи настолько убедительно, что придраться практически не к чему. Вслушиваясь в речи Хьюи Уокера, понимаешь, что простые лозунги хиппи не потеряли своей актуальности. Они уместны в любое время и в любой стране.Фильм оставил приятное послевкусие, желание пересматривать понравившиеся моменты.10 из 10

Media Info

Общее
Полное имя : J:\Флэшбэк\Flashback.1990.WEB-DLRip.[pirat.ca].avi
Формат : AVI
Формат/Информация : Audio Video Interleave
Размер файла : 1,32 Гбайт
Продолжительность : 1 ч. 47 м.
Общий поток : 1751 Кбит/сек
Название фильма : Flashback.1990.WEB-DLRip.[pirat.ca]
Программа кодирования : VirtualDubMod 1.5.10.3 (build 2550/release)
Библиотека кодирования : VirtualDubMod build 2550/releaseВидео
Идентификатор : 0
Формат : MPEG-4 Visual
Профиль формата : Advanced [email protected]/* */
Параметр BVOP формата : 1
Параметр QPel формата : Нет
Параметр GMC формата : Без точки перехода
Параметр матрицы формата : Выборочная
Идентификатор кодека : XVID
Идентификатор кодека/Подсказка : XviD
Продолжительность : 1 ч. 47 м.
Битрейт : 1550 Кбит/сек
Ширина : 720 пикселей
Высота : 400 пикселей
Соотношение сторон : 16:9
Частота кадров : 23,976 (24000/1001) кадра/сек
Цветовое пространство : YUV
Субдискретизация насыщенности : 4:2:0
Битовая глубина : 8 бит
Тип развёртки : Прогрессивная
Метод сжатия : С потерями
Бит/(Пиксели*Кадры) : 0.224
Размер потока : 1,17 Гбайт (89%)
Библиотека кодирования : XviD 73Аудио
Идентификатор : 1
Формат : AC-3
Формат/Информация : Audio Coding 3
Расширение режима : CM (complete main)
Параметр Endianness формата : Big
Идентификатор кодека : 2000
Продолжительность : 1 ч. 47 м.
Вид битрейта : Постоянный
Битрейт : 192 Кбит/сек
Каналы : 2 канала
Расположение каналов : Front: L R
Частота : 48,0 КГц
Частота кадров : 31,250 кадров/сек (1536 spf)
Метод сжатия : С потерями
Размер потока : 148 Мбайт (11%)
Выравнивание : Разделение по промежуткам
Продолжительность промежутка : 42 мс. (1,00 видеокадр)
Время предзагрузки промежутка : 500 мс.

Скриншот c названием фильма

Скриншоты

-Трейлер
Яндекс.Метрика
Рейтинг@Mail.ru