Тролль / Troll (Джон Карл Бюхлер / John Carl Buechler) [1985 г., ужасы, фэнтези, HDRip-AVC] MVO [TV Домашний] + MVO [ТВ3]

 

Создавать темы 23-Июл-2016 02:38

-Тролль / Troll-- Производство: США, Италия, Altar Productions, Empire Pictures, ...
Год выпуска: 1985 г.
Жанр: ужасы, фэнтези
Продолжительность: 01:22:37Мировая премьера: 17 января 1986
Перевод: Профессиональный (многоголосый, закадровый) [TV Домашний]
Перевод 2: Профессиональный (многоголосый, закадровый) [ТВ3]
Режиссер: Джон Карл Бюхлер / John Carl Buechler-В ролях: Ноа Хэтауэй, Майкл Мориарти, Шелли Хэк, Дженни Бек, Сонни Боно, Фил Фондакаро, Брэд Холл, Энн Локхарт, Джулия Луис-Дрейфус, Гари Сэнди-Описание: Проклятый король обращенный в Тролля, стремится вернуть себе человеческий облик. С этой целью он вселяется в тело маленькой девочки Венди, чья семья только что заселилась в один из многоквартирных домов Сан-Франциско. Помешать ему в этом может только старший брат Венди — Гарри и его новая знакомая — соседка, очень кстати оказавшаяся колдуньей.-
Качество видео: HDRip-AVC
Контейнер: MKV
Видео кодек: MPEG4 AVC
Аудио кодек: AC3
Видео: AVC, 1024x556 (16:9), 23.976 fps, 2 132 Kbps (0.156 bit/pixel)
Аудио: AC-3, 48.0 KHz, 2 ch, 192 Kbps, CBR (Russian) - многоголосый (TV Домашний)
Аудио #2: AC-3, 48.0 KHz, 1 ch, 96.0 Kbps, CBR (Russian) - многоголосый (ТВ3)
Cубтитры: отсутствуют

Рецензия

Как Гарри Поттер-младший троллей ловил«Под мостом меня ждал тролль.- Я тролль, — сказал он. Потом помедлил и добавил, точно ему пришло это в голову с запозданием: — Боль соль старый тролль.Он был огромным, макушкой доставал до свода арки. Он был почти прозрачным: мне были видны кирпичи и деревья за ним, смутно, но все же видны. Он был воплощением всех моих кошмаров. У него были огромные крепкие зубы и жуткие когти, а еще сильные волосатые руки. Волосы у него были длинные и косматые, как у маленьких пластмассовых кукол голышей моей сестры, и глаза навыкате.» — Н. Гейман.Удивительно. Но на самом деле «Тролль» — это шедевр. Вы сколько угодно можете обвинять меня в отсутствии художественного вкуса, но вот мне понравилось, и я ничего не могу с собой поделать.Это не фильм ужасов, как может показаться на первый взгляд. Это сказка, причем, я не сказала бы, что она страшная. Возможно, слегка трэшевая, и вся из себя в стиле 80-х (а именно в 80-х она и создавалась), но все же это в достаточной степени интересная сказка. И за атмосферу волшебства я могу простить даже несколько скомканный финал.Итак, зачин тут избитый преизбитый — семья переезжает в новый дом. Правда, дом многоквартирный. В семействе двое детей — маленькая девочка, в которую вселяется тролль, и мальчик-подросток, по-имени Гарри Поттер-младший (самое обыкновенное имя, между прочим, звали бы его Федя Пупкин, было бы куда более странно).Тролль под видом маленькой девочки заколдовывает соседей и создает свою вселенную внутри дома, а мальчик Гарри, заметив, что сестра как-то необычно себя ведет, решает, что она инопланетянка, и рассказывает об этом соседке (и по совместительству ведьме).В такой вот необычный мир окунает нас фильм. Целое сказочное королевство с троллями, ведьмами, эльфами, нимфами, говорящими пнями, и это вся в одном простом доме где-то на просторах Америки.Поэтому стоит сказать, что лента предназначается для тех, кто любит страшные сказки тридцатилетней давности, и не слишком придирается к дешевизне эффектов.P.S. А хор волшебных существ — нечто невероятное.10 из 10

Media Info

Oбщее
Уникальный идентификатор : 195292606153920716656098555304438862097 (0x92EBFCE12D45520C8C02A0CB4F8F1111)
Полное имя : F:\Trollj.1985.HDRip-AVC.[pirat.ca].mkv
Формат : Matroska
Версия формата : Version 2
Размер файла : 1,40 Гбайт
Продолжительность : 1 ч. 22 м.
Общий поток : 2419 Кбит/сек
Дата кодирования : UTC 2016-07-22 13:41:08
Программа кодирования : mkvmerge v5.3.0 ('I could have danced') built on Feb 9 2012 10:38:07
Библиотека кодирования : libebml v1.2.3 + libmatroska v1.3.0
Attachments : poster (7).jpgВидео
Идентификатор : 1
Формат : AVC
Формат/Информация : Advanced Video Codec
Профиль формата : [email protected]/* */
Параметр CABAC формата : Да
Параметр ReFrames формата : 10 кадров
Идентификатор кодека : V_MPEG4/ISO/AVC
Продолжительность : 1 ч. 22 м.
Битрейт : 2132 Кбит/сек
Ширина : 1024 пикселя
Высота : 556 пикселей
Соотношение сторон : 1,85:1
Режим частоты кадров : Постоянный
Частота кадров : 23,976 (24000/1001) кадра/сек
Цветовое пространство : YUV
Субдискретизация насыщенности : 4:2:0
Битовая глубина : 8 бит
Тип развёртки : Прогрессивная
Бит/(Пиксели*Кадры) : 0.156
Размер потока : 1,20 Гбайт (86%)
Библиотека кодирования : x264 core 146 r2538 121396c
Настройки программы : cabac=1 / ref=10 / deblock=1:-3:-3 / analyse=0x3:0x133 / me=umh / subme=10 / psy=1 / psy_rd=1.00:0.00 / mixed_ref=1 / me_range=32 / chroma_me=1 / trellis=2 / 8x8dct=1 / cqm=0 / deadzone=21,11 / fast_pskip=0 / chroma_qp_offset=-2 / threads=12 / lookahead_threads=2 / sliced_threads=0 / nr=0 / decimate=1 / interlaced=0 / bluray_compat=0 / constrained_intra=0 / bframes=8 / b_pyramid=2 / b_adapt=2 / b_bias=0 / direct=3 / weightb=1 / open_gop=0 / weightp=2 / keyint=240 / keyint_min=23 / scenecut=40 / intra_refresh=0 / rc=2pass / mbtree=0 / bitrate=2132 / ratetol=1.0 / qcomp=0.60 / qpmin=0 / qpmax=69 / qpstep=4 / cplxblur=20.0 / qblur=0.5 / ip_ratio=1.40 / pb_ratio=1.30 / aq=2:0.70
Default : Да
Forced : НетАудио #1
Идентификатор : 2
Формат : AC-3
Формат/Информация : Audio Coding 3
Расширение режима : CM (complete main)
Параметр Endianness формата : Big
Идентификатор кодека : A_AC3
Продолжительность : 1 ч. 22 м.
Вид битрейта : Постоянный
Битрейт : 192 Кбит/сек
Каналы : 2 канала
Расположение каналов : Front: L R
Частота : 48,0 КГц
Частота кадров : 31,250 кадров/сек (1536 spf)
Метод сжатия : С потерями
Размер потока : 113 Мбайт (8%)
Заголовок : Многоголосый закадровый (Домашний)
Язык : Russian
Default : Да
Forced : НетАудио #2
Идентификатор : 3
Формат : AC-3
Формат/Информация : Audio Coding 3
Расширение режима : CM (complete main)
Параметр Endianness формата : Big
Идентификатор кодека : A_AC3
Продолжительность : 1 ч. 22 м.
Вид битрейта : Постоянный
Битрейт : 96,0 Кбит/сек
Каналы : 1 канал
Расположение каналов : Front: C
Частота : 48,0 КГц
Частота кадров : 31,250 кадров/сек (1536 spf)
Метод сжатия : С потерями
Размер потока : 56,7 Мбайт (4%)
Заголовок : Многоголосый закадровый (ТВ3)
Язык : Russian
Default : Нет
Forced : НетМеню
00:00:00.000 : en:
00:12:53.689 : en:
00:20:35.609 : en:
00:31:35.435 : en:
00:39:47.927 : en:
00:51:29.835 : en:
01:07:44.560 : en:
01:19:20.171 : en:

Скриншот c названием фильма

Скриншоты

-Трейлер
Яндекс.Метрика
Рейтинг@Mail.ru