Несносный Деннис Против Магии Вуду / Dennis the Menace in Cruise Control (2002) DVBRip

 

Создавать темы 07-Июл-2016 10:53

-Несносный Деннис Против Магии Вуду / Dennis the Menace in Cruise Control (2002) DVBRip- Русское название: Несносный Деннис Против Магии Вуду
Оригинальное название: Dennis the Menace in Cruise Control
Год выпуска: 2002
Жанр: Детский, комедия, приключения,
Страна: США
Режиссер: Патрик А. Вентура
Персонажи: Деннис с псом Рафом, сосед мистер Уилсон, принцесса Лиана и др.
Описание фильма:
В поисках тишины и покоя сварливый сосед Денниса мистер Уилсон решил отправиться в морской круиз. Но все его мечты разбились о суровую реальность!
Деннис и его семейка оказались на борту этого же самого круизного корабля. А когда Деннису вздумалось протянуть руку помощи маленькой островной принцессе, которой грозят темные колдовские силы, и наказать двух мошенников, задумавших украсть ее кольцо, всем пришлось окончательно забыть об отдыхе. Потому что с Деннисом и его командой, когда они приступают к делу, не сравнится даже тропический ураган...
[thumb]http://multi-up.com/695322[/thumb]
Дата мировой премьеры: 27 октября 2002
Продолжительность: 01:10:00
Качество видео: DVBRip
Перевод: Дублированный
Видеокодек: Xvid
Битрейт видео: ~768 kb/s
Размер кадра: 720х576
Аудиокодек: MP3 2 ch
Битрейт аудио: 124 kb/s

MediaInfo

Формат : AVI
Формат/Информация : Audio Video Interleave
Размер файла : 453 Мбайт
Продолжительность : 1 ч. 10 м.
Режим общего битрейта : Переменный
Общий поток : 905 Кбит/сек
Программа кодирования : MEncoder Sherpya-SVN-r32492-4.2.5
Библиотека кодирования : MPlayer
Видео
Идентификатор : 0
Формат : MPEG-4 Visual
Профиль формата : [email protected]
Параметр BVOP формата : Нет
Параметр QPel формата : Нет
Параметр GMC формата : Без точки перехода
Параметр матрицы формата : Default (H.263)
Идентификатор кодека : XVID
Идентификатор кодека/Подсказка : XviD
Продолжительность : 1 ч. 10 м.
Битрейт : 768 Кбит/сек
Ширина : 720 пикселей
Высота : 576 пикселей
Соотношение сторон : 5:4
Частота кадров : 25,000 кадров/сек
Стандарт вещания : PAL
Цветовое пространство : YUV
Субдискретизация насыщенности : 4:2:0
Битовая глубина : 8 бит
Тип развёртки : Прогрессивная
Метод сжатия : С потерями
Бит/(Пиксели*Кадры) : 0.074
Размер потока : 385 Мбайт (85%)
Библиотека кодирования : XviD 1.2.1 (UTC 2008-12-04)
Аудио
Идентификатор : 1
Формат : MPEG Audio
Версия формата : Version 1
Профиль формата : Layer 3
Режим : Joint stereo
Расширение режима : MS Stereo
Идентификатор кодека : 55
Идентификатор кодека/Подсказка : MP3
Продолжительность : 1 ч. 10 м.
Вид битрейта : Переменный
Битрейт : 124 Кбит/сек
Каналы : 2 канала
Частота : 44,1 КГц
Метод сжатия : С потерями
Размер потока : 62,0 Мбайт (14%)
Выравнивание : Соединение по промежуткам
Продолжительность промежутка : 26 мс. (0,65 видеокадр)
Время предзагрузки промежутка : 522 мс.
Скриншоты:
Яндекс.Метрика
Рейтинг@Mail.ru