[ Сегодня на трекере фрилич! Идет свободное скачивание без начисления Download ]

Eric Clapton - Spiral [2016 г.] (Rock, Blues) [HDTVRip, 1080p]

 

Создавать темы 06-Июл-2016 03:09

-Eric Clapton - Spiral-- Год выпуска: 2016 г.
Страна: Ripley, Surrey, England
Жанр: Rock, Blues
Студия: axsTV
Продолжительность: 05:04-Качество видео: HDTVRip
Контейнер: MKV
Стандарт разрешения: 1080p
Видео кодек: MPEG4 AVC
Аудио кодек: MP3
Видео: : 1 920 pixels x 1 080 pixels : 9 567 Kbps : 23.976 fps :
Аудио: : 233 Kbps : 2 channels : 44.1 KHz-

Media Info

General
UniqueID : 174722068954536366873859809277070338935 (0x83723F17A419BB4EB35729542B20EB77)
Complete name : H:\Eric Clapton - Spiral -1080p-x264-2016\eric_clapton-spiral-1080p-x264-2016.mkv
Format : Matroska
File size : 363 MiB
Duration : 5mn 4s
Overall bit rate : 9 999 Kbps
Encoded date : UTC 2016-06-29 05:38:47
Writing application : mkvmerge v9.0.1 ('Obstacles') 64bit
Writing library : libebml v1.3.3 + libmatroska v1.4.4Video
ID : 1
Format : AVC
Format/Info : Advanced Video Codec
Format profile : [email protected]/* */
Format settings, CABAC : Yes
Format settings, ReFrames : 4 frames
Codec ID : V_MPEG4/ISO/AVC
Duration : 5mn 4s
Bit rate : 9 567 Kbps
Width : 1 920 pixels
Height : 1 080 pixels
Display aspect ratio : 16:9
Frame rate : 23.976 fps
Color space : YUV
Chroma subsampling : 4:2:0
Bit depth : 8 bits
Scan type : Progressive
Bits/(Pixel*Frame) : 0.192
Stream size : 347 MiB (96%)
Writing library : x264 core 148 r2692 64f4e24
Encoding settings : cabac=1 / ref=4 / deblock=1:-2:-2 / analyse=0x3:0x113 / me=umh / subme=10 / psy=1 / psy_rd=1.00:0.00 / mixed_ref=1 / me_range=32 / chroma_me=1 / trellis=2 / 8x8dct=1 / cqm=0 / deadzone=21,11 / fast_pskip=1 / chroma_qp_offset=-2 / threads=12 / lookahead_threads=1 / sliced_threads=0 / nr=0 / decimate=1 / interlaced=0 / bluray_compat=0 / constrained_intra=0 / bframes=3 / b_pyramid=2 / b_adapt=2 / b_bias=0 / direct=3 / weightb=1 / open_gop=0 / weightp=2 / keyint=250 / keyint_min=23 / scenecut=40 / intra_refresh=0 / rc_lookahead=50 / rc=crf / mbtree=1 / crf=18.0 / qcomp=0.60 / qpmin=0 / qpmax=69 / qpstep=4 / ip_ratio=1.40 / aq=1:1.00
Language : EnglishAudio
ID : 2
Format : MPEG Audio
Format version : Version 1
Format profile : Layer 3
Mode : Joint stereo
Codec ID : A_MPEG/L3
Codec ID/Hint : MP3
Duration : 5mn 4s
Bit rate mode : Variable
Bit rate : 233 Kbps
Minimum bit rate : 32.0 Kbps
Channel(s) : 2 channels
Sampling rate : 44.1 KHz
Compression mode : Lossy
Video delay : 3ms
Stream size : 8.46 MiB (2%)
Writing library : LAME3.98r
Encoding settings : -m j -V 0 -q 0 -lowpass 19.5 --vbr-new -b 32
-

Скриншоты

--Работаю не за Спасибо , а за ИДЕЮ.--
Яндекс.Метрика
Рейтинг@Mail.ru