Letters From The Fire - Give In To Me [2016 г.] (Alt. Rock, Modern Rock) [HDRip-AVC, 1440p]

 

Создавать темы 06-Июл-2016 03:07

-Letters From The Fire - Give In To Me-- Год выпуска: 2016 г.
Страна: USA
Жанр: Alt. Rock, Modern Rock
Продолжительность: 03:38-Качество видео: HDRip-AVC
Контейнер: MKV
Стандарт разрешения: 1440p
Видео кодек: MPEG4 AVC
Аудио кодек: MP3
Видео: : 2 560 pixels x 1 064 pixels : 13.8 Mbps : 23.976 fps
Аудио: : 320 Kbps : 2 channels : 44.1 KHz-

Media Info

General
UniqueID : 192030055496855046152987257720518317944 (0x9077A4B68AD074CCBB831E09E0619778)
Complete name : H:\Letters From The Fire - Give In To Me\letters_from_the_fire-give_in_to_me-ddc-1440p-x264-2016.mkv
Format : Matroska
File size : 375 MiB
Duration : 3mn 38s
Overall bit rate : 14.4 Mbps
Encoded date : UTC 2016-07-05 09:05:02
Writing application : mkvmerge v9.2.0 ('Photograph') 32bit
Writing library : libebml v1.3.3 + libmatroska v1.4.4Video
ID : 1
Format : AVC
Format/Info : Advanced Video Codec
Format profile : [email protected]/* */
Format settings, CABAC : Yes
Format settings, ReFrames : 4 frames
Format settings, GOP : M=5, N=16
Codec ID : V_MPEG4/ISO/AVC
Duration : 3mn 38s
Bit rate : 13.8 Mbps
Width : 2 560 pixels
Height : 1 064 pixels
Display aspect ratio : 2.40:1
Frame rate : 23.976 fps
Color space : YUV
Chroma subsampling : 4:2:0
Bit depth : 8 bits
Scan type : Progressive
Bits/(Pixel*Frame) : 0.211
Stream size : 360 MiB (96%)
Writing library : x264 core 148 r2692 64f4e24
Encoding settings : cabac=1 / ref=3 / deblock=1:0:0 / analyse=0x3:0x113 / me=umh / subme=9 / psy=1 / psy_rd=1.00:0.00 / mixed_ref=1 / me_range=24 / chroma_me=1 / trellis=1 / 8x8dct=1 / cqm=0 / deadzone=21,11 / fast_pskip=1 / chroma_qp_offset=-2 / threads=6 / lookahead_threads=1 / sliced_threads=0 / nr=0 / decimate=1 / interlaced=0 / bluray_compat=0 / constrained_intra=0 / bframes=16 / b_pyramid=2 / b_adapt=1 / b_bias=0 / direct=1 / weightb=1 / open_gop=0 / weightp=2 / keyint=240 / keyint_min=23 / scenecut=40 / intra_refresh=0 / rc_lookahead=40 / rc=crf / mbtree=1 / crf=18.0 / qcomp=0.60 / qpmin=0 / qpmax=69 / qpstep=4 / vbv_maxrate=62500 / vbv_bufsize=78125 / crf_max=0.0 / nal_hrd=none / filler=0 / ip_ratio=1.40 / aq=1:1.00Audio
ID : 2
Format : MPEG Audio
Format version : Version 1
Format profile : Layer 3
Mode : Joint stereo
Codec ID : A_MPEG/L3
Codec ID/Hint : MP3
Duration : 3mn 38s
Bit rate mode : Constant
Bit rate : 320 Kbps
Channel(s) : 2 channels
Sampling rate : 44.1 KHz
Compression mode : Lossy
Stream size : 8.32 MiB (2%)
Writing library : LAME3.99
Encoding settings : -m j -V 4 -q 0 -lowpass 20.5
Language : English
-

Скриншоты

--Работаю не за Спасибо , а за ИДЕЮ.--
Яндекс.Метрика
Рейтинг@Mail.ru