[ Сегодня на трекере фрилич! Идет свободное скачивание без начисления Download ]

Stitched Up Heart - Monster [2016 г.] (Metal) [UHDRip, 2160p]

 

Создавать темы 05-Июл-2016 03:16

-Stitched Up Heart - Monster-- Год выпуска: 2016 г.
Страна: USA (Los Angeles, California)
Жанр: Metal
Продолжительность: 03:17:00-Качество видео: UHDRip
Контейнер: MP4
Стандарт разрешения: 2160p
Видео кодек: MPEG4
Аудио кодек: AAC
Видео: : 3 840 pixels x 2 160 pixels : 14.0 Mbps : 23.976 fps
Аудио: : 126 Kbps : 2 channels : 44.1 KHz-

Media Info

General
Complete name : H:\Stitched Up Heart - Monster - 2016\Stitched Up Heart - Monster.mp4
Format : MPEG-4
Format profile : Base Media
Codec ID : isom
File size : 332 MiB
Duration : 3mn 17s
Overall bit rate : 14.1 Mbps
Writing application : Lavf56.40.101Video
ID : 1
Format : AVC
Format/Info : Advanced Video Codec
Format profile : [email protected]/* */
Format settings, CABAC : No
Format settings, ReFrames : 2 frames
Codec ID : avc1
Codec ID/Info : Advanced Video Coding
Duration : 3mn 17s
Bit rate mode : Variable
Bit rate : 14.0 Mbps
Width : 3 840 pixels
Height : 2 160 pixels
Display aspect ratio : 16:9
Frame rate mode : Variable
Frame rate : 23.976 fps
Minimum frame rate : 23.974 fps
Maximum frame rate : 90 000.000 fps
Color space : YUV
Chroma subsampling : 4:2:0
Bit depth : 8 bits
Scan type : Progressive
Bits/(Pixel*Frame) : 0.070
Stream size : 329 MiB (99%)
Color primaries : BT.709-5, BT.1361, IEC 61966-2-4, SMPTE RP177
Transfer characteristics : BT.709-5, BT.1361
Matrix coefficients : BT.709-5, BT.1361, IEC 61966-2-4 709, SMPTE RP177Audio
ID : 2
Format : AAC
Format/Info : Advanced Audio Codec
Format version : Version 4
Format profile : LC
Codec ID : 40
Duration : 3mn 17s
Bit rate mode : Constant
Bit rate : 126 Kbps
Channel(s) : 2 channels
Channel positions : Front: L R
Sampling rate : 44.1 KHz
Compression mode : Lossy
Stream size : 2.95 MiB (1%)

Скриншоты

Яндекс.Метрика
Рейтинг@Mail.ru