[ Сегодня на трекере фрилич! Идет свободное скачивание без начисления Download ]

Харчевня в Шпессарте / Das Wirtshaus im Spessart (Курт Хоффманн / Kurt Hoffmann) [1958 г., мюзикл, комедия, приключения, DVDRip] VO

 

Создавать темы 02-Июл-2016 05:00

-Харчевня в Шпессарте / Das Wirtshaus im Spessart-- Производство: Германия (ФРГ), Bavaria Film, Georg Witt-Film
Год выпуска: 1958 г.
Жанр: мюзикл, комедия, приключения
Продолжительность: 01:36:03Мировая премьера: 15 января 1958
Перевод: Профессиональный (одноголосый, закадровый)
Режиссер: Курт Хоффманн / Kurt Hoffmann-В ролях: Лизлотт Пюльве, Карлос Томпсон, Рудольф Фогель, Гюнтер Людерс и др.-Описание: Графиня Франциска с женихом едут в свой родовой замок Зандау. На ночь им приходится остановиться в харчевне в глухом месте Шпессарт. Ночью в харчевню врываются бандиты, чтобы похитить графиню и получить за нее выкуп…-
Качество видео: DVDRip
Контейнер: AVI
Видео кодек: XviD
Аудио кодек: AC3
Видео: 720x448 (1.61:1), 25 fps, XviD build 50 ~3389 kbps avg, 0.42 bit/pixel
Аудио: 48 kHz, AC3 Dolby Digital, 2/0 (L,R) ch, ~192 kbps
Cубтитры: отсутствуют

Награды

Каннский кинофестиваль, 1958 год
Номинации (1):
Золотая пальмовая ветвь

Media Info

Общее
Полное имя : D:\D\Привидения в замке Шпессарт\Harchevnja v Shpessarte.1958.[pirat.ca].avi
Формат : AVI
Формат/Информация : Audio Video Interleave
Профиль формата : OpenDML
Размер файла : 2,41 Гбайт
Продолжительность : 1 ч. 36 м.
Общий поток : 3589 Кбит/сек
Название фильма : Harchevnja v Shpessarte.1958.[pirat.ca]
Программа кодирования : VirtualDubMod 1.5.10.3 | www.virtualdub-fr.org || (build 2550/release)Видео
Идентификатор : 0
Формат : MPEG-4 Visual
Профиль формата : Advanced [email protected]/* */
Параметр BVOP формата : 1
Параметр QPel формата : Нет
Параметр GMC формата : Без точки перехода
Параметр матрицы формата : Default (MPEG)
Идентификатор кодека : XVID
Идентификатор кодека/Подсказка : XviD
Продолжительность : 1 ч. 36 м.
Битрейт : 3385 Кбит/сек
Ширина : 720 пикселей
Высота : 448 пикселей
Соотношение сторон : 16:10
Частота кадров : 25,000 кадров/сек
Цветовое пространство : YUV
Субдискретизация насыщенности : 4:2:0
Битовая глубина : 8 бит
Тип развёртки : Прогрессивная
Метод сжатия : С потерями
Бит/(Пиксели*Кадры) : 0.420
Размер потока : 2,27 Гбайт (94%)
Библиотека кодирования : XviD 1.2.1 (UTC 2008-12-04)Аудио
Идентификатор : 1
Формат : AC-3
Формат/Информация : Audio Coding 3
Расширение режима : CM (complete main)
Параметр Endianness формата : Big
Идентификатор кодека : 2000
Продолжительность : 1 ч. 36 м.
Вид битрейта : Постоянный
Битрейт : 192 Кбит/сек
Каналы : 2 канала
Расположение каналов : Front: L R
Частота : 48,0 КГц
Частота кадров : 31,250 кадров/сек (1536 spf)
Метод сжатия : С потерями
Размер потока : 132 Мбайт (5%)
Выравнивание : Разделение по промежуткам
Продолжительность промежутка : 40 мс. (1,00 видеокадр)
Время предзагрузки промежутка : 500 мс.

Скриншот c названием фильма

Скриншоты

-Трейлер
Яндекс.Метрика
Рейтинг@Mail.ru