[ Сегодня на трекере фрилич! Идет свободное скачивание без начисления Download ]

(Thrash Metal) Assassin - Combat Cathedral - 2016 [FLAC, image+.cue, lossless]

 

Создавать темы 22-Июн-2016 04:41

-Assassin - Combat Cathedral-- Год издания: 2016
Страна: Germany
Жанр: Thrash Metal
Продолжительность: 00:56:33-Лейбл издания: SPV GmbH
Тип альбома: Master
Страна-выпуска диска: May 20th, 2016, Germany
Номер по каталогу: SPV 269422 CD
Источник (релизер): RMT-Формат: FLAC
Битрейт аудио: lossless
Тип рипа: image+.cue
Наличие сканов в содержимом раздачи: да-

Трэклист

01. Back from the Dead
02. Frozen Before Impact
03. Undying Mortality
04. Servant of Fear
05. Slave of Time
06. Whoremonger
07. Cross the Line
08. What Doesn't Kill Me Makes Me Stronger
09. Ambush
10. Word
11. Sanity from the Insane
12. Red Alert
-

Лог создания рипа

Exact Audio Copy V1.1 from 23. June 2015EAC extraction logfile from 18. June 2016, 2:46Assassin / Combat CathedralUsed drive : ATAPI iHAS122 W Adapter: 2 ID: 0Read mode : Secure
Utilize accurate stream : Yes
Defeat audio cache : Yes
Make use of C2 pointers : NoRead offset correction : 48
Overread into Lead-In and Lead-Out : No
Fill up missing offset samples with silence : Yes
Delete leading and trailing silent blocks : No
Null samples used in CRC calculations : Yes
Used interface : Installed external ASPI interfaceUsed output format : User Defined Encoder
Selected bitrate : 1024 kBit/s
Quality : High
Add ID3 tag : No
Command line compressor : C:\Program Files\FLAC\flac.exe
Additional command line options : -V -8 -T "Date=%year%" -T "Genre=%genre%" -T"COMMENT=Ripped by Ilijan" -8 -V %source%TOC of the extracted CD Track | Start | Length | Start sector | End sector
---------------------------------------------------------
1 | 0:00.00 | 3:53.52 | 0 | 17526
2 | 3:53.52 | 2:25.70 | 17527 | 28471
3 | 6:19.47 | 5:05.55 | 28472 | 51401
4 | 11:25.27 | 5:24.47 | 51402 | 75748
5 | 16:49.74 | 4:29.31 | 75749 | 95954
6 | 21:19.30 | 5:46.25 | 95955 | 121929
7 | 27:05.55 | 5:45.28 | 121930 | 147832
8 | 32:51.08 | 4:07.61 | 147833 | 166418
9 | 36:58.69 | 4:39.37 | 166419 | 187380
10 | 41:38.31 | 3:24.27 | 187381 | 202707
11 | 45:02.58 | 3:26.21 | 202708 | 218178
12 | 48:29.04 | 5:27.28 | 218179 | 242731Range status and errorsSelected range Filename D:\ilко\Assassin - Combat Cathedral.wav Peak level 99.0 %
Extraction speed 3.9 X
Range quality 100.0 %
Test CRC EBE69165
Copy CRC EBE69165
Copy OKNo errors occurredAccurateRip summaryTrack 1 accurately ripped (confidence 1) [23ECC853] (AR v2)
Track 2 accurately ripped (confidence 1) [E11EAE87] (AR v2)
Track 3 accurately ripped (confidence 1) [DA0309DD] (AR v2)
Track 4 accurately ripped (confidence 1) [3EAFABDD] (AR v2)
Track 5 accurately ripped (confidence 1) [A4C59455] (AR v2)
Track 6 accurately ripped (confidence 1) [0F466ADE] (AR v2)
Track 7 accurately ripped (confidence 1) [BFCB4BB5] (AR v2)
Track 8 accurately ripped (confidence 1) [D2887E25] (AR v2)
Track 9 accurately ripped (confidence 1) [D99F4183] (AR v2)
Track 10 accurately ripped (confidence 1) [1AAFBCC2] (AR v2)
Track 11 accurately ripped (confidence 1) [4A279CDC] (AR v2)
Track 12 accurately ripped (confidence 1) [3B480799] (AR v2)All tracks accurately rippedEnd of status report---- CUETools DB Plugin V2.1.6[CTDB TOCID: 2Rx7A27EIrjFe8gKmWMwIfD_d.0-] found
Submit result: 2Rx7A27EIrjFe8gKmWMwIfD_d.0- has been confirmed
Track | CTDB Status
1 | (4/4) Accurately ripped
2 | (4/4) Accurately ripped
3 | (4/4) Accurately ripped
4 | (4/4) Accurately ripped
5 | (4/4) Accurately ripped
6 | (4/4) Accurately ripped
7 | (4/4) Accurately ripped
8 | (4/4) Accurately ripped
9 | (4/4) Accurately ripped
10 | (4/4) Accurately ripped
11 | (4/4) Accurately ripped
12 | (4/4) Accurately ripped==== Log checksum FEFBCF0D44B49EDD06B8933C0680E62B8CE74E0FD125E515639781F91DBF91B8 ====
-

Индексная карта (non-compilant .cue)

REM GENRE Thrash Metal
REM DATE 2016
REM COMMENT 2016, Germany, First Press, Digipack, DR5
PERFORMER "Assassin"
TITLE "Combat Cathedral"
FILE "Assassin - Combat Cathedral.flac" WAVE
TRACK 01 AUDIO
TITLE "Back From The Dead"
INDEX 01 00:00:00
TRACK 02 AUDIO
TITLE "Frozen Before Impact"
INDEX 01 03:53:52
TRACK 03 AUDIO
TITLE "Undying Mortality"
INDEX 01 06:19:47
TRACK 04 AUDIO
TITLE "Servant Of Fear"
INDEX 01 11:25:27
TRACK 05 AUDIO
TITLE "Slave Of Time"
INDEX 01 16:49:74
TRACK 06 AUDIO
TITLE "Whoremonger"
INDEX 01 21:19:30
TRACK 07 AUDIO
TITLE "Cross The Line"
INDEX 01 27:05:55
TRACK 08 AUDIO
TITLE "What Doesn't Kill Me Makes Me Stronger"
INDEX 01 32:51:08
TRACK 09 AUDIO
TITLE "Ambush"
INDEX 01 36:58:69
TRACK 10 AUDIO
TITLE "Word"
INDEX 01 41:38:31
TRACK 11 AUDIO
TITLE "Sanity From The Insane"
INDEX 01 45:02:58
TRACK 12 AUDIO
TITLE "Red Alert"
INDEX 01 48:29:04
-

Скриншот спектра частот

-YouTube
Яндекс.Метрика
Рейтинг@Mail.ru