Сумасшедшие на стадионе / Les fous du stade (Клод Зиди / Claude Zidi) [1972 г., комедия, DVDRip] Dub [Киностудия "Союзмультфильм"] + Original (Fre)

 

Создавать темы 15-Июн-2016 04:40

-Сумасшедшие на стадионе / Les fous du stade-- Производство: Франция, Les Films Christian Fechner, Renn Productions
Год выпуска: 1972 г.
Жанр: комедия
Продолжительность: 01:24:38Мировая премьера: 22 сентября 1972
Дата выхода DVD: 30 октября 2008, «Настроение Video»
Перевод: Профессиональный (полное дублирование) [Киностудия "Союзмультфильм"]
Оригинальный аудиопоток: французскийРежиссер: Клод Зиди / Claude Zidi-В ролях: Жан Саррю, Жерар Филипелли, Жан-Ги Фешнер, Поль Пребуа, Жерар Ринальди, Мартина Келли, Жак Сейле, Жерар Крос, Франсуа Каде, Пьер Гальди, Патрик Жилль, Ги Люкс, Жан Эскенази...
Роли дублировали: Владимир Басов мл., Александр Новиков, Андрей Гриневич, Андрей Гусев, Сергей Юрский, ...-Описание: В маленьком французском городке должны состояться спортивные соревнования. Весь город украшен флагами и транспарантами, но тут появляются они, и все в очередной раз становится с ног на голову.Парни собираются принять участие в состязаниях, чтобы доказать, что они не хуже известных и сильных спортсменов могут завоевывать призовые места. Их способы борьбы за первенство хоть и не очень честны, но уж очень смешны…-
Качество видео: DVDRip
Контейнер: AVI
Видео кодек: DivX
Аудио кодек: AC3
Видео: 704x416 (1.69:1), 25 fps, DivX Codec 6.8.3 ~1918 kbps avg, 0.26 bit/pixel
Аудио: 48 kHz, AC3 Dolby Digital, 2/0 (L,R) ch, ~192 kbps ("Союзмультфильм")
Аудио #2: 48 kHz, AC3 Dolby Digital, 2/0 (L,R) ch, ~192 kbps
Cубтитры: отсутствуют

Media Info

Общее
Полное имя : D:\D\Шарло\Sumasshedshie na stadione.1972.DVDRip.[pirat.ca].avi
Формат : AVI
Формат/Информация : Audio Video Interleave
Размер файла : 1,37 Гбайт
Продолжительность : 1 ч. 24 м.
Общий поток : 2318 Кбит/сек
Название фильма : Sumasshedshie na stadione.1972.DVDRip.[pirat.ca]
Программа кодирования : VirtualDubMod 1.5.10.2 (build 2540/release)Видео
Идентификатор : 0
Формат : MPEG-4 Visual
Параметр BVOP формата : Нет
Параметр QPel формата : Нет
Параметр GMC формата : Без точки перехода
Параметр матрицы формата : Default (H.263)
Идентификатор кодека : DX50
Идентификатор кодека/Подсказка : DivX 5
Продолжительность : 1 ч. 24 м.
Битрейт : 1920 Кбит/сек
Ширина : 704 пикселя
Высота : 416 пикселей
Соотношение сторон : 5:3
Частота кадров : 25,000 кадров/сек
Цветовое пространство : YUV
Субдискретизация насыщенности : 4:2:0
Битовая глубина : 8 бит
Тип развёртки : Прогрессивная
Метод сжатия : С потерями
Бит/(Пиксели*Кадры) : 0.262
Размер потока : 1,13 Гбайт (83%)
Библиотека кодирования : DivX 6.8.3-6.8.4 (UTC 2008-06-07)Аудио #1
Идентификатор : 1
Формат : AC-3
Формат/Информация : Audio Coding 3
Расширение режима : CM (complete main)
Параметр Endianness формата : Big
Идентификатор кодека : 2000
Продолжительность : 1 ч. 24 м.
Вид битрейта : Постоянный
Битрейт : 192 Кбит/сек
Каналы : 2 канала
Расположение каналов : Front: L R
Частота : 48,0 КГц
Частота кадров : 31,250 кадров/сек (1536 spf)
Метод сжатия : С потерями
Размер потока : 116 Мбайт (8%)
Выравнивание : Разделение по промежуткам
Продолжительность промежутка : 40 мс. (1,00 видеокадр)
Время предзагрузки промежутка : 500 мс.Аудио #2
Идентификатор : 2
Формат : AC-3
Формат/Информация : Audio Coding 3
Расширение режима : CM (complete main)
Параметр Endianness формата : Big
Идентификатор кодека : 2000
Продолжительность : 1 ч. 24 м.
Вид битрейта : Постоянный
Битрейт : 192 Кбит/сек
Каналы : 2 канала
Расположение каналов : Front: L R
Частота : 48,0 КГц
Частота кадров : 31,250 кадров/сек (1536 spf)
Метод сжатия : С потерями
Размер потока : 116 Мбайт (8%)
Выравнивание : Разделение по промежуткам
Продолжительность промежутка : 40 мс. (1,00 видеокадр)
Время предзагрузки промежутка : 500 мс.

Скриншот c названием фильма

Скриншоты

Яндекс.Метрика
Рейтинг@Mail.ru