Кавказская пленница, или Новые приключения Шурика (1966) BDRip-AVC | 60 fps

 

Создавать темы 08-Июн-2016 23:03

Кавказская пленница, или Новые приключения Шурика (1966) BDRip-AVC | 60 fps- Название: Кавказская пленница, или Новые приключения Шурика
Год выхода: 1966
Жанр: мелодрама, комедия, приключения, семейный, музыка
Режиссер: Леонид Гайдай
Сценарий: Леонид Гайдай, Яков Костюковский, Морис Слободской
Директор фильма: Л. Фрейдин
В ролях:
Александр Демьяненко, Наталья Варлей, Руслан Ахметов, Юрий Никулин, Георгий Вицин, Евгений Моргунов, Владимир Этуш, Фрунзик Мкртчян, Нина Гребешкова, Михаил Глузский--Сюжет:

Отправившись в одну из горных республик собирать фольклор, герой фильма Шурик влюбляется в симпатичную девушку — «спортсменку, отличницу, и просто красавицу». Но ее неожиданно похищают, чтобы насильно выдать замуж.
Наивный Шурик не сразу смог сообразить, что творится у него под носом, — однако затем отважно ринулся освобождать «кавказскую пленницу»…
-Страна: СССР
Продолжительность: 01:19:53
Файл
Кодек: MPEG4/ISO/AVC H.264
Формат: MKV
Качество: BDRip-AVC | 60 fps
Видео: 768x560 (1.371) | 59.940 fps | 3.5 Мбит/сек
[colr=olive]Аудио:
AC3 | 5.1 | 48 kHz | 640 kbps | 16 bit |
Субтитры: русские (Полные)

MedifInfo

Video
ID : 1
Format : AVC
Format/Info : Advanced Video Codec
Format profile : [email protected]
Format settings, CABAC : Yes
Format settings, ReFrames : 4 frames
Codec ID : V_MPEG4/ISO/AVC
Duration : 1h 19mn
Bit rate : 3 500 Kbps
Width : 768 pixels
Height : 560 pixels
Display aspect ratio : 1.371
Frame rate : 59.940 fps
Color space : YUV
Chroma subsampling : 4:2:0
Bit depth : 8 bits
Scan type : Progressive
Bits/(Pixel*Frame) : 0.136
Stream size : 1.91 GiB (83%)
Writing library : x264 core 146 r2538 121396c
Encoding settings : cabac=1 / ref=3 / deblock=1:0:0 / analyse=0x3:0x113 / me=umh / subme=9 / psy=1 / psy_rd=1.00:0.10 / mixed_ref=1 / me_range=32 / chroma_me=1 / trellis=2 / 8x8dct=1 / cqm=0 / deadzone=21,11 / fast_pskip=0 / chroma_qp_offset=-3 / threads=12 / lookahead_threads=3 / sliced_threads=0 / nr=0 / decimate=1 / interlaced=0 / bluray_compat=0 / constrained_intra=0 / bframes=16 / b_pyramid=2 / b_adapt=2 / b_bias=0 / direct=3 / weightb=1 / open_gop=0 / weightp=2 / keyint=250 / keyint_min=25 / scenecut=40 / intra_refresh=0 / rc_lookahead=40 / rc=2pass / mbtree=0 / bitrate=3500 / ratetol=1.0 / qcomp=0.60 / qpmin=0 / qpmax=69 / qpstep=4 / cplxblur=20.0 / qblur=0.5 / vbv_maxrate=14000 / vbv_bufsize=14000 / nal_hrd=none / filler=0 / ip_ratio=1.40 / pb_ratio=1.30 / aq=1:1.00
Language : English
Default : Yes
Forced : No
Audio
ID : 2
Format : AC-3
Format/Info : Audio Coding 3
Mode extension : CM (complete main)
Codec ID : A_AC3
Duration : 1h 19mn
Bit rate mode : Constant
Bit rate : 640 Kbps
Channel(s) : 6 channels
Channel positions : Front: L C R, Side: L R, LFE
Sampling rate : 48.0 KHz
Bit depth : 16 bits
Compression mode : Lossy
Stream size : 366 MiB (15%)
Title : Оригинал
Language : Russian
Default : Yes
Forced : No
Text
ID : 3
Format : UTF-8
Codec ID : S_TEXT/UTF8
Codec ID/Info : UTF-8 Plain Text
Title : Полные
Language : Russian
Default : No
Forced : No
Menu
00:00:00.000 : ru:Chapter 01
00:05:52.477 : ru:Chapter 02
00:09:11.717 : ru:Chapter 03
00:11:31.190 : ru:Chapter 04
00:16:08.550 : ru:Chapter 05
00:23:07.969 : ru:Chapter 06
00:26:04.729 : ru:Chapter 07
00:31:01.234 : ru:Chapter 08
00:33:40.435 : ru:Chapter 09
00:38:45.906 : ru:Chapter 10
00:44:11.148 : ru:Chapter 11
00:51:10.734 : ru:Chapter 12
00:57:19.227 : ru:Chapter 13
01:00:15.069 : ru:Chapter 14
01:13:13.430 : ru:Chapter 15
01:18:14.856 : ru:Chapter 16
01:19:52.871 : ru:Chapter 17

Скриншоты:

Яндекс.Метрика
Рейтинг@Mail.ru