[ Сегодня на трекере фрилич! Идет свободное скачивание без начисления Download ]

Джентльмены удачи (1971) BDRip-AVC | 60 fps

 

Создавать темы 08-Июн-2016 23:02

Джентльмены удачи (1971) BDRip-AVC | 60 fps- Название: Джентльмены удачи
Год выхода: 1971
Жанр: драма, комедия, криминал, детектив
Режиссер: Александр Серый
Сценарий: Георгий Данелия, Виктория Токарева
Директор фильма: Александра Демидова
В ролях:
Евгений Леонов, Георгий Вицин, Раднэр Муратов, Савелий Крамаров, Наталья Фатеева, Эраст Гарин, Николай Олялин, Анатолий Папанов, Павел Шпрингфельд, Любовь Соколова--Сюжет:

Заведующему детсадом Трошкину фатально не повезло: он оказался как две капли воды похож на бандита по кличке «Доцент», похитившего уникальный шлем Александра Македонского.
Милиция внедряет добряка Трошкина в воровскую среду — и ему ничего не остается, кроме как старательно изображать своего двойника-злодея, путая всех окружающих. Со временем он настолько блестяще входит в роль, что сам начинает порой приходить в ужас. Между тем, жизни его угрожает смертельная опасность…
-Страна: СССР
Продолжительность: 01:26:43
Файл
Кодек: MPEG4/ISO/AVC H.264
Формат: MKV
Качество: BDRip-AVC | 60 fps
Видео: 752x568 (4:3) | 59.940 fps | 3.5 Мбит/сек
Аудио: AC3 | 5.1 | 48 kHz | 640 kbps | 16 bit |
Субтитры: русские (Полные)

MedifInfo

Video
ID : 1
Format : AVC
Format/Info : Advanced Video Codec
Format profile : [email protected]
Format settings, CABAC : Yes
Format settings, ReFrames : 4 frames
Codec ID : V_MPEG4/ISO/AVC
Duration : 1h 26mn
Bit rate : 3 500 Kbps
Width : 752 pixels
Height : 568 pixels
Display aspect ratio : 4:3
Frame rate : 59.940 fps
Color space : YUV
Chroma subsampling : 4:2:0
Bit depth : 8 bits
Scan type : Progressive
Bits/(Pixel*Frame) : 0.137
Stream size : 2.07 GiB (83%)
Writing library : x264 core 146 r2538 121396c
Encoding settings : cabac=1 / ref=3 / deblock=1:0:0 / analyse=0x3:0x113 / me=umh / subme=9 / psy=1 / psy_rd=1.00:0.10 / mixed_ref=1 / me_range=32 / chroma_me=1 / trellis=2 / 8x8dct=1 / cqm=0 / deadzone=21,11 / fast_pskip=0 / chroma_qp_offset=-3 / threads=12 / lookahead_threads=3 / sliced_threads=0 / nr=0 / decimate=1 / interlaced=0 / bluray_compat=0 / constrained_intra=0 / bframes=16 / b_pyramid=2 / b_adapt=2 / b_bias=0 / direct=3 / weightb=1 / open_gop=0 / weightp=2 / keyint=250 / keyint_min=25 / scenecut=40 / intra_refresh=0 / rc_lookahead=40 / rc=2pass / mbtree=0 / bitrate=3500 / ratetol=1.0 / qcomp=0.60 / qpmin=0 / qpmax=69 / qpstep=4 / cplxblur=20.0 / qblur=0.5 / vbv_maxrate=14000 / vbv_bufsize=14000 / nal_hrd=none / filler=0 / ip_ratio=1.40 / pb_ratio=1.30 / aq=1:1.00
Language : English
Default : Yes
Forced : No
Audio
ID : 2
Format : AC-3
Format/Info : Audio Coding 3
Mode extension : CM (complete main)
Codec ID : A_AC3
Duration : 1h 26mn
Bit rate mode : Constant
Bit rate : 640 Kbps
Channel(s) : 6 channels
Channel positions : Front: L C R, Side: L R, LFE
Sampling rate : 48.0 KHz
Bit depth : 16 bits
Compression mode : Lossy
Stream size : 397 MiB (15%)
Title : Оригинал
Language : Russian
Default : Yes
Forced : No
Text
ID : 3
Format : UTF-8
Codec ID : S_TEXT/UTF8
Codec ID/Info : UTF-8 Plain Text
Title : Полные
Language : Russian
Default : No
Forced : No
Menu
00:00:00.000 : en:Chapter 1
00:07:36.956 : en:Chapter 2
00:14:13.227 : en:Chapter 3
00:17:12.573 : en:Chapter 4
00:24:43.064 : en:Chapter 5
00:29:42.489 : en:Chapter 6
00:33:08.277 : en:Chapter 7
00:39:24.653 : en:Chapter 8
00:42:40.182 : en:Chapter 9
00:48:23.901 : en:Chapter 10
00:58:45.396 : en:Chapter 11
01:03:47.698 : en:Chapter 12
01:04:44.755 : en:Chapter 13
01:14:36.930 : en:Chapter 14
01:20:04.508 : en:Chapter 15
01:24:35.403 : en:Chapter 16

Скриншоты:

Яндекс.Метрика
Рейтинг@Mail.ru