Кин-дза-дза! (1986) BDRip 1080p | 60 fps

 

Создавать темы 08-Июн-2016 22:59

Кин-дза-дза! (1986) BDRip 1080p | 60 fps- Название: Кин-дза-дза!
Год выхода: 1986
Жанр: Фантастика, Комедия, Драма
Режиссер: Георгий Данелия
Сценарий: Георгий Данелия, Реваз Габриадзе
Директор фильма: Николай Гаро
В ролях:
Cтанислав Любшин, Евгений Леонов, Юрий Яковлев, Леван Габриадзе, Ольга Машная, Ирина Шмелева, Лев Перфилов, Георгий Данелия, Александра Дорохина--О фильме:
Прораб Владимир Николаевич Машков и не подозревал, что обычный путь до универсама за хлебом и макаронами обернется межгалактическими путешествиями. А все эта встреча со студентом в кроличьей шапке с большой сумкой и с каким-то маленьким устройством — «машинкой перемещения», как он ее сам называл.
Короче, нажал на кнопку — и оказался вместе с молодым человеком в пустыне, и не в каких-нибудь Каракумах, а на планете-пустыне Плюк в тентуре, галактика Кин-дза-дза в спирали…
-Страна: СССР
Продолжительность: 01:06:12 + 01:06:36--Файл
Кодек: MPEG4/ISO/AVC H.264
Формат: MKV
Качество: BDRip 1080p | 60 fps
Видео: 1488х1080 | 60.000 fps | 4.2 Мбит/сек
Аудио: MP3 | 2.0 | 48 kHz | 320 Кбит/сек | 16 bit |
Субтитры: вшитые отключаемые (русские, английские)

MedifInfo

Видео
Идентификатор : 1
Формат : AVC
Формат/Информация : Advanced Video Codec
Профиль формата : [email protected]
Параметр CABAC формата : Да
Параметр ReFrames формата : 2 кадра
Идентификатор кодека : V_MPEG4/ISO/AVC
Продолжительность : 1 ч. 6 м.
Битрейт : 4200 Кбит/сек
Ширина : 1488 пикселей
Высота : 1080 пикселей
Соотношение сторон : 1,378
Режим частоты кадров : Постоянный
Частота кадров : 59,940 (59940/1000) кадров/сек
Цветовое пространство : YUV
Субдискретизация насыщенности : 4:2:0
Битовая глубина : 8 бит
Тип развёртки : Прогрессивная
Бит/(Пиксели*Кадры) : 0.044
Размер потока : 1,93 Гбайт (93%)
Библиотека кодирования : x264 core 142 r2479
Настройки программы : cabac=1 / ref=2 / deblock=1:-1:-1 / analyse=0x1:0x131 / me=hex / subme=7 / psy=1 / psy_rd=1.00:0.10 / mixed_ref=0 / me_range=16 / chroma_me=1 / trellis=1 / 8x8dct=0 / cqm=0 / deadzone=21,11 / fast_pskip=1 / chroma_qp_offset=-3 / threads=3 / lookahead_threads=1 / sliced_threads=0 / nr=0 / decimate=1 / interlaced=0 / bluray_compat=0 / constrained_intra=0 / bframes=3 / b_pyramid=0 / b_adapt=1 / b_bias=0 / direct=3 / weightb=1 / open_gop=0 / weightp=2 / keyint=590 / keyint_min=59 / scenecut=40 / intra_refresh=0 / rc_lookahead=40 / rc=2pass / mbtree=1 / bitrate=4200 / ratetol=1.0 / qcomp=0.60 / qpmin=10 / qpmax=69 / qpstep=4 / cplxblur=20.0 / qblur=0.5 / vbv_maxrate=4200 / vbv_bufsize=24000 / nal_hrd=none / filler=0 / ip_ratio=1.40 / aq=1:1.00
Default : Да
Forced : Нет
Аудио
Идентификатор : 2
Формат : MPEG Audio
Версия формата : Version 1
Профиль формата : Layer 3
Идентификатор кодека : A_MPEG/L3
Идентификатор кодека/Подсказка : MP3
Продолжительность : 1 ч. 6 м.
Вид битрейта : Постоянный
Битрейт : 320 Кбит/сек
Каналы : 2 канала
Частота : 48,0 КГц
Частота кадров : 41,667 кадра/сек (1152 spf)
Метод сжатия : С потерями
Размер потока : 303 Мбайт (14%)
Заголовок : Rus
Библиотека кодирования : LAME3.99r
Настройки программы : -m s -V 4 -q 2 -lowpass 20.5
Язык : Russian
Default : Да
Forced : Нет
Текст #1
Идентификатор : 3
Формат : ASS
Идентификатор кодека : S_TEXT/ASS
Идентификатор кодека/Информация : Advanced Sub Station Alpha
Продолжительность : 1 ч. 3 м.
Битрейт : 101 бит/сек
Count of elements : 847
Метод сжатия : Без потерь
Размер потока : 47,7 Кбайт (0%)
Заголовок : Rus
Язык : Russian
Default : Да
Forced : Нет
Текст #2
Идентификатор : 4
Формат : ASS
Идентификатор кодека : S_TEXT/ASS
Идентификатор кодека/Информация : Advanced Sub Station Alpha
Продолжительность : 1 ч. 3 м.
Битрейт : 76 бит/сек
Count of elements : 786
Метод сжатия : Без потерь
Размер потока : 35,8 Кбайт (0%)
Заголовок : Eng
Default : Нет
Forced : Нет

Скриншоты:

Яндекс.Метрика
Рейтинг@Mail.ru